۩ ‼ Вы находитесь на Бесплатном торрент-трекере TORRNADA.com ۩ Зарегистрируйтесь для получения полного доступа ко всем функциям сайта ! ۩ После регистрации подпишитесь на нашу рассылку в своём профиле ۩
Auto Web Pinger

 

[Цитировать]

Баламут (1979) DVD5 - Производство: СССР / Киностудия им. Горького
Жанр: Комедия, Драма
Режиссер: Владимир Роговой
Актеры: Вадим Андреев, Наталья Казначеева, Николай Денисов, Евгения Симонова, Владимир Шихов, Валентина Клягина, Откам Искендеров, Норис Паластре, Юрий Саранцев, Вадим Захарченко.
Описание:
Фильм о становлении молодежи, о формировании характеров, о вступлении в самостоятельную взрослую жизнь. Главный герой - Петр Горохов - никогда и ничего не делает наполовину. Ему чужды цинизм, вялость души, равнодушие. Решительный и страстный во всем, он снискал себе прозвище «Баламут».

Возраст: 16+ (зрителям, достигшим 16 лет.)
Продолжительность: 01:25:20
Качество видео: DVD5
Видео: MPEG-2, 720x576@768х576, 6924 kbps
Аудио: AC3, 2 ch, 192 kbps, CBR
Субтитры: нет
Дополнительные материалы: Бонусы нет

Mediainfo:

Общее
Полное имя                               : \Balamut\Video_ts\VTS_01_1.VOB
Формат                                   : MPEG-PS
Размер файла                             : 1024 Мбайт
Продолжительность                        : 19 м.
Режим общего битрейта                    : Переменный
Общий поток                              : 7261 Кбит/сек
Видео
Идентификатор                            : 224 (0xE0)
Формат                                   : MPEG Video
Версия формата                           : Version 2
Профиль формата                          : Main@Main
Параметр BVOP формата                    : Да
Параметр матрицы формата                 : Выборочная
Продолжительность                        : 19 м.
Вид битрейта                             : Переменный
Битрейт                                  : 6924 Кбит/сек
Максимальный битрейт                     : 8000 Кбит/сек
Ширина                                   : 720 пикселей
Высота                                   : 576 пикселей
Соотношение сторон                       : 4:3
Частота кадров                           : 25,000 кадров/сек
Стандарт вещания                         : PAL
Цветовое пространство                    : YUV
Субдискретизация насыщенности            : 4:2:0
Битовая глубина                          : 8 бит
Тип развёртки                            : Чересстрочная
Порядок развёртки                        : Верхнее поле первое
Метод сжатия                             : С потерями
Бит/(Пиксели*Кадры)                      : 0.668
Размер потока                            : 976 Мбайт (95%)
Аудио
Идентификатор                            : 189 (0xBD)-128 (0x80)
Формат                                   : AC-3
Формат/Информация                        : Audio Coding 3
Расширение режима                        : CM (complete main)
Параметр Endianness формата              : Big
Режим смешивания                         : DVD-Video
Продолжительность                        : 19 м.
Вид битрейта                             : Постоянный
Битрейт                                  : 192 Кбит/сек
Каналы                                   : 2 канала
Расположение каналов                     : Front: L R
Частота                                  : 48,0 КГц
Битовая глубина                          : 16 бит
Метод сжатия                             : С потерями
Размер потока                            : 27,1 Мбайт (3%)
Меню

DVDinfo:

Title: Balamut
Size: 4.24 Gb ( 4 442 372,00 KBytes ) - DVD-5
Enabled regions: 1, 2, 3, 4, 5, 6, 7, 8
VTS_01 :
  Play Length: 00:00:06+01:25:14
  Video: PAL 4:3 (720x576) VBR
  Audio:
      English (Dolby AC3, 2 ch)
* Menus Information *
VIDEO_TS Menu
Video:
      NTSC 4:3 (720x480) VBR
      Auto Pan&Scan, Auto Letterboxed
Language Unit :
VTS_01 Menu
Video:
      PAL 4:3 (720x576) VBR
English Language Unit :
      Root Menu

Рецензия, отзыв:

Ностальгия
Фильм добрый и хороший, не могу поставить оценку ниже, 9 ибо этой и мой институт показывают, а ностальгия штука сильная.
Отличие нашел одно и существенное (не считая, конечно, что съемки проходили не только в МИУ/ГАУ/ГУУ) — кто ж там так учился, как главный герой, это же экономический вуз. А так все похоже. И иностранцев в наше время здесь много училось (у меня в группе были бангладешцы). И с физкультурой очень похоже.
Случай из моей жизни. Распределение по специальности на 3-м курсе.
Я:- хочу на «управление»;
Деканат: — но у Вас очень низкая успеваемость идите на «экономику»;
Я: — хочу на управление, чуствую силы и т. д.;
Д:- какое «управление» с Вашей успеваемостью, идите на другую специальность, и вообще, почему на распределение пришли с синяком и кровоподтеками на лице?
Я: — травма на тренировке, я чемпион нашего вуза по самбо.
Д: — а ну если спортсмен, тогда, конечно, на «управление».
Жаль, в силу возраста не застал то время, было бы интересно сравнить, как реально выглядели студенты конца 70-х. Кстати, по тем временам фильм еще и затрагивал остросоциальные вопросы:
- нехватку учителей в деревне;
- бюрократию;
- недостатки социалистического планирования.
Но все это было сделано с очень добрым мягким юмором, не затмившим лирическую направленность.
P.S. А все-таки немногие ВУЗы могут похвастаться попаданием в историю кинематографа.
9 из 10
Скриншоты:

Дополнительные скриншоты:

Не жилим спасибо. Не забываем голосовать за трекер!!!


Показать сообщения:    

Текущее время: 23-Май 05:53

Часовой пояс: UTC + 3


Вы не можете начинать темы
Вы не можете отвечать на сообщения
Вы не можете редактировать свои сообщения
Вы не можете удалять свои сообщения
Вы не можете голосовать в опросах
Вы не можете прикреплять файлы к сообщениям
Вы не можете скачивать файлы

!ВНИМАНИЕ!
Сайт не предоставляет электронные версии произведений, а занимается лишь коллекционированием и каталогизацией ссылок, присылаемых и публикуемых на форуме нашими читателями. Если вы являетесь правообладателем какого-либо представленного материала и не желаете, чтобы ссылка на него находилась в нашем каталоге, свяжитесь с нами, и мы незамедлительно удалим ее. Файлы для обмена на трекере предоставлены пользователями сайта, и администрация не несет ответственности за их содержание. Просьба не заливать файлы, защищенные авторскими правами, а также файлы нелегального содержания!