۩ ‼ Вы находитесь на Бесплатном торрент-трекере TORRNADA.com ۩ Зарегистрируйтесь для получения полного доступа ко всем функциям сайта ! ۩ После регистрации подпишитесь на нашу рассылку в своём профиле ۩
Auto Web Pinger

 

[Цитировать]

Информация о фильме
Название: Всё включено
Оригинальное название: All Inclusive
Год выхода: 2014
Жанр: драма, комедия
Режиссер: Хелла Йооф
В ролях: Микаэль Бирккьяр, Расмус Бьерг, Карстен Бьорнлунн, Даника Куркик, Диогу Инфанте, Бодиль Ёргенсон, Миа Лине, Кристиан Мосбек, Anna Neye Poulsen, Maria Rossing
О фильме: Главная героиня решает отметить свое 60-летие поездкой на Мальту. Компанию ей составляют две дочери, которые давно уже не общаются и ненавидят друг друга. Одна из них — серьезная женщина и мать троих детей, другая — упорно не желающая взрослеть рокерша, ведущая альтернативный образ жизни... Во время средиземноморского турне участницы этого забавного трио будут переживать романтические приключения и выяснять отношения друг с другом...

Выпущено: Дания / Happy Ending Film
Продолжительность: 01:29:32
Перевод: Любительский (одноголосый, закадровый) - Vaxywod
Файл
Качество: BDRip 720p
Формат: MKV
Видео: MPEG4/AVC, 6200 Кбит/сек, 1280х536 (2.40:1), 24.000 кадра/сек
Аудио 1: AC3, 2 канала, 192 Кбит/сек | Русский
Аудио 2: DTS, 6 каналов, 1509 Кбит/сек | Датский
Субтитры: Английские
Навигация по главам: Есть

MediaInfo:

Общее
Уникальный идентификатор : 199160851020107498200759263731558386981 (0x95D4FC138662CE99AF7A531456C00D25)
Полное имя : All Inclusive. (2014) BDRip 720p.mkv
Формат : Matroska
Версия формата : Version 2
Размер файла : 4,94 Гбайт
Продолжительность : 1 ч. 29 м.
Общий поток : 7899 Кбит/сек
Название фильма : All Inclusive. 2014
Дата кодирования : UTC 2015-07-20 20:13:09
Программа кодирования : mkvmerge v5.8.0 ('No Sleep / Pillow') built on Sep 2 2012 15:37:04
Библиотека кодирования : libebml v1.2.3 + libmatroska v1.3.0
Видео
Идентификатор : 1
Формат : AVC
Формат/Информация : Advanced Video Codec
Профиль формата : High@L4.1
Параметр CABAC формата : Да
Параметр ReFrames формата : 9 кадров
Идентификатор кодека : V_MPEG4/ISO/AVC
Продолжительность : 1 ч. 29 м.
Битрейт : 6200 Кбит/сек
Ширина : 1280 пикселей
Высота : 536 пикселей
Соотношение сторон : 2,40:1
Режим частоты кадров : Постоянный
Частота кадров : 24,000 кадра/сек
Цветовое пространство : YUV
Субдискретизация насыщенности : 4:2:0
Битовая глубина : 8 бит
Тип развёртки : Прогрессивная
Бит/(Пиксели*Кадры) : 0.377
Размер потока : 3,78 Гбайт (76%)
Заголовок : MTeam
Библиотека кодирования : x264 core 142 r2431 ac76440
Настройки программы : cabac=1 / ref=9 / deblock=1:-3:-3 / analyse=0x3:0x113 / me=umh / subme=11 / psy=1 / psy_rd=1.00:0.05 / mixed_ref=1 / me_range=32 / chroma_me=1 / trellis=2 / 8x8dct=1 / cqm=0 / deadzone=21,11 / fast_pskip=0 / chroma_qp_offset=-2 / threads=8 / lookahead_threads=1 / sliced_threads=0 / nr=0 / decimate=1 / interlaced=0 / bluray_compat=0 / constrained_intra=0 / bframes=5 / b_pyramid=2 / b_adapt=2 / b_bias=0 / direct=3 / weightb=1 / open_gop=0 / weightp=2 / keyint=250 / keyint_min=24 / scenecut=40 / intra_refresh=0 / rc=2pass / mbtree=0 / bitrate=6200 / ratetol=1.0 / qcomp=0.70 / qpmin=0 / qpmax=69 / qpstep=4 / cplxblur=20.0 / qblur=0.5 / ip_ratio=1.40 / pb_ratio=1.30 / aq=2:0.90
Язык : English
Default : Да
Forced : Нет
Аудио #1
Идентификатор : 2
Формат : AC-3
Формат/Информация : Audio Coding 3
Расширение режима : CM (complete main)
Параметр Endianness формата : Big
Идентификатор кодека : A_AC3
Продолжительность : 1 ч. 29 м.
Вид битрейта : Постоянный
Битрейт : 192 Кбит/сек
Каналы : 2 канала
Расположение каналов : Front: L R
Частота : 48,0 КГц
Битовая глубина : 16 бит
Метод сжатия : С потерями
Размер потока : 123 Мбайт (2%)
Заголовок : L1 | Vaxywod
Язык : Russian
Default : Да
Forced : Нет
Аудио #2
Идентификатор : 3
Формат : DTS
Формат/Информация : Digital Theater Systems
Режим : 16
Параметр Endianness формата : Big
Идентификатор кодека : A_DTS
Продолжительность : 1 ч. 29 м.
Вид битрейта : Постоянный
Битрейт : 1509 Кбит/сек
Каналы : 6 каналов
Расположение каналов : Front: L C R, Side: L R, LFE
Частота : 48,0 КГц
Битовая глубина : 24 бит
Метод сжатия : С потерями
Размер потока : 966 Мбайт (19%)
Заголовок : Original
Язык : Danish
Default : Нет
Forced : Нет
Текст
Идентификатор : 4
Формат : UTF-8
Идентификатор кодека : S_TEXT/UTF8
Идентификатор кодека/Информация : UTF-8 Plain Text
Заголовок : Full
Язык : English
Default : Нет
Forced : Нет
Меню
00:00:00.000 : da:00:00:00.000
00:07:41.000 : da:00:07:41.000
00:17:13.125 : da:00:17:13.125
00:22:14.417 : da:00:22:14.417
00:36:00.292 : da:00:36:00.292
00:44:32.542 : da:00:44:32.542
00:50:30.333 : da:00:50:30.333
00:56:35.167 : da:00:56:35.167
01:04:29.667 : da:01:04:29.667
01:12:05.500 : da:01:12:05.500
01:19:31.500 : da:01:19:31.500
01:25:25.583 : da:01:25:25.583


Показать сообщения:    

Текущее время: 23-Май 06:39

Часовой пояс: UTC + 3


Вы не можете начинать темы
Вы не можете отвечать на сообщения
Вы не можете редактировать свои сообщения
Вы не можете удалять свои сообщения
Вы не можете голосовать в опросах
Вы не можете прикреплять файлы к сообщениям
Вы не можете скачивать файлы

!ВНИМАНИЕ!
Сайт не предоставляет электронные версии произведений, а занимается лишь коллекционированием и каталогизацией ссылок, присылаемых и публикуемых на форуме нашими читателями. Если вы являетесь правообладателем какого-либо представленного материала и не желаете, чтобы ссылка на него находилась в нашем каталоге, свяжитесь с нами, и мы незамедлительно удалим ее. Файлы для обмена на трекере предоставлены пользователями сайта, и администрация не несет ответственности за их содержание. Просьба не заливать файлы, защищенные авторскими правами, а также файлы нелегального содержания!