۩ ‼ Вы находитесь на Бесплатном торрент-трекере TORRNADA.com ۩ Зарегистрируйтесь для получения полного доступа ко всем функциям сайта ! ۩ После регистрации подпишитесь на нашу рассылку в своём профиле ۩
Auto Web Pinger

 

[Цитировать]

BBC: Жизнь / BBC: Life
Год выпуска: 2009
Страна: Великобритания, Греция
Жанр: Документальный ТВ-сериал
Продолжительность: ~00:49:00 (1 серия)
Перевод: Субтитры
Русские субтитры: есть
Формат субтитров: hardsub (неотключаемые)
Оригинальная аудиодорожка: английский
Режиссер: Саймон Блэкни / Simon Blakeney, Стефен Лайл / Stephen Lyle
Телеканал: Аруц 8 (Израиль)
Описание: Ошеломляющий и поражающий своей красотой, новыми открытиями и впечатлениями уникальный сериал о живой природе нашей планеты. Более 3000 съемочных дней, проведенных на каждом из земных континентов, беспрецедентная техника съемки, 130 невероятных и захватывающих дух историй из страниц животного мира, — все это и есть «Жизнь» — история животного мира, какой Вы её еще не видели прежде!
Доп. информация: Запись с канала "Аруц 8". Фильмы на английском языке с двойными субтитрами (вшитыми) на русском языке и иврите. Перевод: Алла Теплицкая (1,4,5,7,8,10), Ави Тамаркин (2,3), Виталий Заиченко (6,9). Субтитры: Дори Медиа от ЛТД.
Cэмпл: https://yadi.sk/i/jrATQ8lWheBKp
качество: TVRip
формат: AVI
Видео: 1795 Кbps, 704х432 (1.630), 25.000 fps, MPEG-4 Visual (XviD)(Advanced Simple@L5)(BVOP2)
Аудио: 128 Kbps,48.0 KHz, 2 сhannels, MPEG Audio (MP3) (Version 1)(Layer 3)(Joint stereo/MS Stereo)

Список серий

01. Challenges of Life / Испытания жизни
02. Reptiles and Amphibians / Рептилии и амфибии
03. Mammals / Млекопитающие
04. Fish / Рыбы
05. Birds / Птицы
06. Insects / Насекомые
07. Hunters and Hunted / Охотники и жертвы
08. Creatures of the Deep / Подводный мир
09. Plants / Растения
10. Primates / Приматы

MediaInfo

General
Complete name : D:\BBC Life\01-Challenges of Life.avi
Format : AVI
Format/Info : Audio Video Interleave
File size : 672 MiB
Duration : 48mn 36s
Overall bit rate : 1 933 Kbps
Writing library : VirtualDub-MPEG2 build 24600/release
Video
ID : 0
Format : MPEG-4 Visual
Format profile : Advanced Simple@L5
Format settings, BVOP : 2
Format settings, QPel : No
Format settings, GMC : No warppoints
Format settings, Matrix : Default (MPEG)
Codec ID : XVID
Codec ID/Hint : XviD
Duration : 48mn 36s
Bit rate : 1 795 Kbps
Width : 704 pixels
Height : 432 pixels
Display aspect ratio : 1.630
Frame rate : 25.000 fps
Color space : YUV
Chroma subsampling : 4:2:0
Bit depth : 8 bits
Scan type : Progressive
Compression mode : Lossy
Bits/(Pixel*Frame) : 0.236
Stream size : 624 MiB (93%)
Writing library : XviD 58
Audio
ID : 1
Format : MPEG Audio
Format version : Version 1
Format profile : Layer 3
Mode : Joint stereo
Mode extension : MS Stereo
Codec ID : 55
Codec ID/Hint : MP3
Duration : 48mn 36s
Bit rate mode : Constant
Bit rate : 128 Kbps
Channel(s) : 2 channels
Sampling rate : 48.0 KHz
Compression mode : Lossy
Stream size : 44.5 MiB (7%)
Alignment : Split accross interleaves
Interleave, duration : 40 ms (1.00 video frame)
Interleave, preload duration : 500 ms

Скриншоты

Не жилим спасибо. Не забываем голосовать за трекер!!!


Показать сообщения:    

Текущее время: 22-Май 22:00

Часовой пояс: UTC + 3


Вы не можете начинать темы
Вы не можете отвечать на сообщения
Вы не можете редактировать свои сообщения
Вы не можете удалять свои сообщения
Вы не можете голосовать в опросах
Вы не можете прикреплять файлы к сообщениям
Вы не можете скачивать файлы

!ВНИМАНИЕ!
Сайт не предоставляет электронные версии произведений, а занимается лишь коллекционированием и каталогизацией ссылок, присылаемых и публикуемых на форуме нашими читателями. Если вы являетесь правообладателем какого-либо представленного материала и не желаете, чтобы ссылка на него находилась в нашем каталоге, свяжитесь с нами, и мы незамедлительно удалим ее. Файлы для обмена на трекере предоставлены пользователями сайта, и администрация не несет ответственности за их содержание. Просьба не заливать файлы, защищенные авторскими правами, а также файлы нелегального содержания!