۩ ‼ Вы находитесь на Бесплатном торрент-трекере TORRNADA.com ۩ Зарегистрируйтесь для получения полного доступа ко всем функциям сайта ! ۩ После регистрации подпишитесь на нашу рассылку в своём профиле ۩
Auto Web Pinger

 

[Цитировать]

GREMLIN CREATIVE STUDIO
представляет

Гарри Поттер и Зассанная комната. Перезагрузка

Год выпуска: 2015 (Оригинал - 2002)
Страна: США
Жанр: пародия, комедия
Продолжительность: неравномерные серии, длина каждой будет сообщаться по мере выхода.
1я серия = 00:30:39.
Перевод: Профессиональный (дубляж) Доп.инфо о переводе Gremlin Creative Studio
Cубтитры: нет
Режиссер: Крис Коламбус / Chris Columbus
В ролях: Гарри Поттер, Рыжий Петух, Стерва Грэйнджер, Дарт Морт, Хагрид, Ленин и др.
Описание: Остаток летних каникул Гарри провел как никогда счастливо - в доме у Петухов. Очкарик и Рыжий спали вместе, ели вместе и первые неприятности при отправлении в школу встретили тоже вместе.
Новый учебный год начался для сладкой парочки с проблем, наказаний и штрафов. Созревающая Стерва Грэйнджер, как биологическая особь, вызывала у парней ухмылки и некоторый интерес, новый учитель по защите от ВИЧ поражал ребят своим высокомерием и самолюбием, и всё это разряжало унылые серые тянущиеся дни, пока в школе не начали происходить странные события. Первым обвиняемым в них становится Гарри, который то и дело оказывается не в то время и не в том месте. Он решает самостоятельно во всём разобраться и наталкивается на матричный дневник, содержимое которого запрограммировано на выполнение собственных целей... Новые правила, напряжённые отношения, запутанные тайны, опасные сражения, наркотики, страх, секс и любовь ждут Вас в совершенно новом переизданном сюжете от Творческой студии ГРЕМЛИН!

Доп. информация: ВНИМАНИЕ! В переводе присутствуют мат, жёсткий стеб, черный юмор, пошлятина и разная нецензурщина. Ввиду этого тем, кого не устраивает что-либо из вышесказанного, убедительная просьба НЕ КАЧАТЬ фильм, дабы не разводить демагогию в бестолковых постах. Также сообщаем, что данный перевод (озвучка) создан с юмором и ради юмора. И, конечно же, данный материал носит исключительно ознакомительный характер!

FAQ + причины "серийности"

Такая "серийность" фильма сделана ввиду ряда причин! Теперь успокойтесь и прочтите ещё раз - "ввиду ряда причин". К тому же, не каждый осилит 3-хчасовой фильм, а большая доля фишек/шуток будет опускаться. Так что выбор остаётся за вами: или смотрите сериями, или ждите целикового фильма, который выйдет точно до конца этого лета.
- Что это ваще такое?????777
Данный фильм является переизданием (версией 3) выпущенного в 2005 г. "Гарри Поттер и Зассанная комната" (версия 2). В остальном, он продолжает линейку самых стёбных переводов о Гарри Поттере в озвучке GCS.
- Что-то изменено?
Изменено абсолютно всё.
- Я не смотрел ни одного вашего Гарри!
Поздравляем.
- Где можно скачать саундтрек?
Ссылка появится, как только он будет выложен.
p.s.: релиз состоялся 15 июля 2015г.
Официальный сайт студии
Качество: BDRip
Формат: MKV
Видео кодек: H.264
Аудио кодек: AC3
Видео: H264, 1920x800, 2.40:1, 23.976 fps, 8 000 Kbps
Аудио: AC-3, 48 KHz, 448 Kbps, Stereo (Front: L R), 16 bits

MediaInfo

Format : Matroska
Format version : Version 1
File size : 1.80 GiB
Duration : 30mn 39s
Overall bit rate : 8 399 Kbps
Encoded date : UTC 2015-07-15 12:55:25
Writing application : mkvmerge v2.4.1 ('Use Me') built on Dec 5 2008 18:30:05
Writing library : libebml v0.7.7 + libmatroska v0.8.1
Video
ID : 1
Format : AVC
Format/Info : Advanced Video Codec
Format profile : High 4:4:4 Predictive@L1.3
Format settings, CABAC : No
Format settings, ReFrames : 2 frames
Codec ID : V_MPEG4/ISO/AVC
Duration : 30mn 39s
Bit rate : 8 000 Kbps
Width : 1 920 pixels
Height : 800 pixels
Display aspect ratio : 2.40:1
Frame rate mode : Constant
Frame rate : 23.976 fps
Color space : YUV
Chroma subsampling : 4:4:4
Bit depth : 8 bits
Scan type : Progressive
Bits/(Pixel*Frame) : 0.217
Stream size : 1.67 GiB (93%)
Title : HP2-ZK-Reload-1part.GCS
Writing library : x264 core 140 r2377 1ca7bb9
Encoding settings : cabac=0 / ref=2 / deblock=1:0:0 / analyse=0x1:0x111 / me=umh / subme=6 / psy=1 / psy_rd=1.00:0.00 / mixed_ref=1 / me_range=16 / chroma_me=1 / trellis=0 / 8x8dct=0 / cqm=0 / deadzone=21,11 / fast_pskip=1 / chroma_qp_offset=4 / threads=12 / lookahead_threads=2 / sliced_threads=0 / nr=0 / decimate=1 / interlaced=0 / bluray_compat=0 / constrained_intra=0 / bframes=0 / weightp=0 / keyint=250 / keyint_min=23 / scenecut=40 / intra_refresh=0 / rc_lookahead=40 / rc=abr / mbtree=1 / bitrate=8000 / ratetol=1.0 / qcomp=0.60 / qpmin=0 / qpmax=69 / qpstep=4 / ip_ratio=1.40 / aq=1:1.00
Language : Russian
Default : Yes
Forced : No
Audio
ID : 2
Format : AC-3
Format/Info : Audio Coding 3
Mode extension : CM (complete main)
Format settings, Endianness : Big
Codec ID : A_AC3
Duration : 30mn 39s
Bit rate mode : Constant
Bit rate : 448 Kbps
Channel(s) : 6 channels
Channel positions : Front: L C R, Side: L R, LFE
Sampling rate : 48.0 KHz
Bit depth : 16 bits
Compression mode : Lossy
Stream size : 98.3 MiB (5%)
Title : HP2-ZK-Reload-1part.GCS
Language : Russian
Default : Yes
Forced : No

Скриншоты

Не жилим спасибо. Не забываем голосовать за трекер!!!


Показать сообщения:    

Текущее время: 21-Май 11:37

Часовой пояс: UTC + 3


Вы не можете начинать темы
Вы не можете отвечать на сообщения
Вы не можете редактировать свои сообщения
Вы не можете удалять свои сообщения
Вы не можете голосовать в опросах
Вы не можете прикреплять файлы к сообщениям
Вы не можете скачивать файлы

!ВНИМАНИЕ!
Сайт не предоставляет электронные версии произведений, а занимается лишь коллекционированием и каталогизацией ссылок, присылаемых и публикуемых на форуме нашими читателями. Если вы являетесь правообладателем какого-либо представленного материала и не желаете, чтобы ссылка на него находилась в нашем каталоге, свяжитесь с нами, и мы незамедлительно удалим ее. Файлы для обмена на трекере предоставлены пользователями сайта, и администрация не несет ответственности за их содержание. Просьба не заливать файлы, защищенные авторскими правами, а также файлы нелегального содержания!