۩ ‼ Вы находитесь на Бесплатном торрент-трекере TORRNADA.com ۩ Зарегистрируйтесь для получения полного доступа ко всем функциям сайта ! ۩ После регистрации подпишитесь на нашу рассылку в своём профиле ۩
Auto Web Pinger

 

[Цитировать]

-Прости...Грех и покаяние- Дата/Год выпуска: 2009
Страна: Россия
Студия: Интересное КИНО!
Жанр: Документальный
Продолжительность: 00:43:13
Перевод: Не требуется
Русские субтитры: нет
Режиссер: Анастасия Дадыко
Описание: Исследуя православные понятия греха и покаяния , создатели фильма не только обратились за толкованиями к богословам и священникам, но и рассказали истории людей, жизнь которых была разрушена тяжелыми грехами –воровством, убийством, наркоманией, абортами… Но – покаяние, приход к Богу – возродили их и духовно, и физически. В жизни появился и смысл, и радость, и… подлинная добродетель, без которой нормальная человеческая жизнь невозможна.
Доп. информация: Фильм снят при содействии епископа Егорьевского Марка (Головкова). Оператор Дмитрий Михалев. Монтаж Михаил Пушков.
В папке с раздачей сканы обложек диска и коробки.
Меню: Нет
Сэмпл: http://sendfile.su/1138755
качество: DVD5
формат: DVD-Video
Видео: PAL 4:3 720x576@768x576, 25.000 fps, ~8082 kbps
Аудио: Russian AC3 2.0, 48,0 КГц, 192 kbps

DVDInfo

Title: Прости...Грех и покаяние (2009) DVD5
Size: 2.44 Gb ( 2 557 294,00 KBytes ) - DVD-5
Enabled regions: 1, 2, 3, 4, 5, 6, 7, 8
VTS_01 :
Play Length: 00:43:12
Video: PAL 4:3 (720x576) VBR
Audio:
Russian, AC3, 2/0 (L,R) ch, 192 kbps, Delay 0 mSec
* Menus Information *
VIDEO_TS Menu
Video:
PAL 4:3 (720x576) VBR
Auto Pan&Scan, Auto Letterboxed
Language Unit :
Title Menu
VTS_01 Menu
Video:
PAL 4:3 (720x576) VBR
Auto Pan&Scan, Auto Letterboxed
Language Unit :
Root Menu

MediaInfo

Общее
Полное имя : E:\Православные фильмы и музыка\Фильмы\Прости...Грех и покаяние (2009) DVD5\VIDEO_TS\VIDEO_TS.BUP
Формат : DVD Video
Профиль формата : Menu
Размер файла : 8,00 Кбайт
Режим общего битрейта : Переменный
Видео
Идентификатор : 224 (0xE0)
Формат : MPEG Video
Версия формата : Version 1
Вид битрейта : Переменный
Ширина : 720 пикселей
Высота : 576 пикселей
Соотношение сторон : 4:3
Частота кадров : 25,000 кадров/сек
Стандарт вещания : PAL
Метод сжатия : С потерями
Общее
Полное имя : E:\Православные фильмы и музыка\Фильмы\Прости...Грех и покаяние (2009) DVD5\VIDEO_TS\VIDEO_TS.IFO
Формат : DVD Video
Профиль формата : Menu
Размер файла : 8,00 Кбайт
Режим общего битрейта : Переменный
Видео
Идентификатор : 224 (0xE0)
Формат : MPEG Video
Версия формата : Version 1
Вид битрейта : Переменный
Ширина : 720 пикселей
Высота : 576 пикселей
Соотношение сторон : 4:3
Частота кадров : 25,000 кадров/сек
Стандарт вещания : PAL
Метод сжатия : С потерями
Общее
Полное имя : E:\Православные фильмы и музыка\Фильмы\Прости...Грех и покаяние (2009) DVD5\VIDEO_TS\VTS_01_0.BUP
Формат : DVD Video
Профиль формата : Program
Размер файла : 34,0 Кбайт
Продолжительность : 43 м.
Режим общего битрейта : Переменный
Общий поток : 107 бит/сек
Видео
Идентификатор : 224 (0xE0)
Формат : MPEG Video
Версия формата : Version 2
Продолжительность : 43 м.
Вид битрейта : Переменный
Ширина : 720 пикселей
Высота : 576 пикселей
Соотношение сторон : 4:3
Частота кадров : 25,000 кадров/сек
Стандарт вещания : PAL
Метод сжатия : С потерями
Аудио
Идентификатор : 128 (0x80)
Формат : AC-3
Формат/Информация : Audio Coding 3
Продолжительность : 43 м.
Каналы : 2 канала
Частота : 48,0 КГц
Метод сжатия : С потерями
Язык : Russian
Меню
Продолжительность : 43 м.
00:00:00.000 : Chapter 1
List (Audio) : 0
Общее
Полное имя : E:\Православные фильмы и музыка\Фильмы\Прости...Грех и покаяние (2009) DVD5\VIDEO_TS\VTS_01_0.IFO
Формат : DVD Video
Профиль формата : Program
Размер файла : 34,0 Кбайт
Продолжительность : 43 м.
Режим общего битрейта : Переменный
Общий поток : 107 бит/сек
Видео
Идентификатор : 224 (0xE0)
Формат : MPEG Video
Версия формата : Version 2
Продолжительность : 43 м.
Вид битрейта : Переменный
Ширина : 720 пикселей
Высота : 576 пикселей
Соотношение сторон : 4:3
Частота кадров : 25,000 кадров/сек
Стандарт вещания : PAL
Метод сжатия : С потерями
Аудио
Идентификатор : 128 (0x80)
Формат : AC-3
Формат/Информация : Audio Coding 3
Продолжительность : 43 м.
Каналы : 2 канала
Частота : 48,0 КГц
Метод сжатия : С потерями
Язык : Russian
Меню
Продолжительность : 43 м.
00:00:00.000 : Chapter 1
List (Audio) : 0
Общее
Полное имя : E:\Православные фильмы и музыка\Фильмы\Прости...Грех и покаяние (2009) DVD5\VIDEO_TS\VTS_01_1.VOB
Формат : MPEG-PS
Размер файла : 1024 Мбайт
Продолжительность : 17 м.
Режим общего битрейта : Переменный
Общий поток : 8078 Кбит/сек
Видео
Идентификатор : 224 (0xE0)
Формат : MPEG Video
Версия формата : Version 2
Профиль формата : Main@Main
Параметр BVOP формата : Да
Параметр матрицы формата : Выборочная
Параметр GOP формата : M=3, N=15
Структура изображения : Frame
Продолжительность : 17 м.
Вид битрейта : Переменный
Битрейт : 7800 Кбит/сек
Ширина : 720 пикселей
Высота : 576 пикселей
Соотношение сторон : 4:3
Частота кадров : 25,000 кадров/сек
Стандарт вещания : PAL
Цветовое пространство : YUV
Субдискретизация насыщенности : 4:2:0
Битовая глубина : 8 бит
Тип развёртки : Чересстрочная
Порядок развёртки : Нижнее поле первое
Метод сжатия : С потерями
Бит/(Пиксели*Кадры) : 0.752
Временной код первого кадра : 00:00:00:00
Оригинал временного кода : Group of pictures header
GOP, открыто/закрыто : Открыто
GOP, открыто/закрыто на первом кадре : Закрыто
Размер потока : 979 Мбайт (96%)
Аудио
Идентификатор : 189 (0xBD)-128 (0x80)
Формат : AC-3
Формат/Информация : Audio Coding 3
Расширение режима : CM (complete main)
Параметр Endianness формата : Big
Режим смешивания : DVD-Video
Продолжительность : 17 м.
Вид битрейта : Постоянный
Битрейт : 192 Кбит/сек
Каналы : 2 канала
Расположение каналов : Front: L R
Частота : 48,0 КГц
Метод сжатия : С потерями
Размер потока : 24,3 Мбайт (2%)
Меню
Общее
Полное имя : E:\Православные фильмы и музыка\Фильмы\Прости...Грех и покаяние (2009) DVD5\VIDEO_TS\VTS_01_2.VOB
Формат : MPEG-PS
Размер файла : 1024 Мбайт
Продолжительность : 17 м.
Режим общего битрейта : Переменный
Общий поток : 8082 Кбит/сек
Видео
Идентификатор : 224 (0xE0)
Формат : MPEG Video
Версия формата : Version 2
Профиль формата : Main@Main
Параметр BVOP формата : Да
Параметр матрицы формата : Выборочная
Параметр GOP формата : M=3, N=15
Структура изображения : Frame
Продолжительность : 17 м.
Вид битрейта : Переменный
Битрейт : 7800 Кбит/сек
Ширина : 720 пикселей
Высота : 576 пикселей
Соотношение сторон : 4:3
Частота кадров : 25,000 кадров/сек
Стандарт вещания : PAL
Цветовое пространство : YUV
Субдискретизация насыщенности : 4:2:0
Битовая глубина : 8 бит
Тип развёртки : Чересстрочная
Порядок развёртки : Нижнее поле первое
Метод сжатия : С потерями
Бит/(Пиксели*Кадры) : 0.752
Временной код первого кадра : 00:17:43:16
Оригинал временного кода : Group of pictures header
GOP, открыто/закрыто : Открыто
Размер потока : 979 Мбайт (96%)
Аудио
Идентификатор : 189 (0xBD)-128 (0x80)
Формат : AC-3
Формат/Информация : Audio Coding 3
Расширение режима : CM (complete main)
Параметр Endianness формата : Big
Режим смешивания : DVD-Video
Продолжительность : 17 м.
Вид битрейта : Постоянный
Битрейт : 192 Кбит/сек
Каналы : 2 канала
Расположение каналов : Front: L R
Частота : 48,0 КГц
Метод сжатия : С потерями
Задержка видео : -520 мс.
Размер потока : 24,3 Мбайт (2%)
Меню
Общее
Полное имя : E:\Православные фильмы и музыка\Фильмы\Прости...Грех и покаяние (2009) DVD5\VIDEO_TS\VTS_01_3.VOB
Формат : MPEG-PS
Размер файла : 449 Мбайт
Продолжительность : 7 м. 46 с.
Режим общего битрейта : Переменный
Общий поток : 8075 Кбит/сек
Видео
Идентификатор : 224 (0xE0)
Формат : MPEG Video
Версия формата : Version 2
Профиль формата : Main@Main
Параметр BVOP формата : Да
Параметр матрицы формата : Выборочная
Параметр GOP формата : M=3, N=15
Структура изображения : Frame
Продолжительность : 7 м. 46 с.
Вид битрейта : Переменный
Битрейт : 7800 Кбит/сек
Ширина : 720 пикселей
Высота : 576 пикселей
Соотношение сторон : 4:3
Частота кадров : 25,000 кадров/сек
Стандарт вещания : PAL
Цветовое пространство : YUV
Субдискретизация насыщенности : 4:2:0
Битовая глубина : 8 бит
Тип развёртки : Чересстрочная
Порядок развёртки : Нижнее поле первое
Метод сжатия : С потерями
Бит/(Пиксели*Кадры) : 0.752
Временной код первого кадра : 00:35:26:12
Оригинал временного кода : Group of pictures header
GOP, открыто/закрыто : Открыто
Размер потока : 429 Мбайт (96%)
Аудио
Идентификатор : 189 (0xBD)-128 (0x80)
Формат : AC-3
Формат/Информация : Audio Coding 3
Расширение режима : CM (complete main)
Параметр Endianness формата : Big
Режим смешивания : DVD-Video
Продолжительность : 7 м. 46 с.
Вид битрейта : Постоянный
Битрейт : 192 Кбит/сек
Каналы : 2 канала
Расположение каналов : Front: L R
Частота : 48,0 КГц
Метод сжатия : С потерями
Задержка видео : -512 мс.
Размер потока : 10,7 Мбайт (2%)
Меню

Скриншоты

Не жилим спасибо. Не забываем голосовать за трекер!!!


Показать сообщения:    

Текущее время: 23-Май 16:57

Часовой пояс: UTC + 3


Вы не можете начинать темы
Вы не можете отвечать на сообщения
Вы не можете редактировать свои сообщения
Вы не можете удалять свои сообщения
Вы не можете голосовать в опросах
Вы не можете прикреплять файлы к сообщениям
Вы не можете скачивать файлы

!ВНИМАНИЕ!
Сайт не предоставляет электронные версии произведений, а занимается лишь коллекционированием и каталогизацией ссылок, присылаемых и публикуемых на форуме нашими читателями. Если вы являетесь правообладателем какого-либо представленного материала и не желаете, чтобы ссылка на него находилась в нашем каталоге, свяжитесь с нами, и мы незамедлительно удалим ее. Файлы для обмена на трекере предоставлены пользователями сайта, и администрация не несет ответственности за их содержание. Просьба не заливать файлы, защищенные авторскими правами, а также файлы нелегального содержания!