۩ ‼ Вы находитесь на Бесплатном торрент-трекере TORRNADA.com ۩ Зарегистрируйтесь для получения полного доступа ко всем функциям сайта ! ۩ После регистрации подпишитесь на нашу рассылку в своём профиле ۩
Auto Web Pinger

 

[Цитировать]

Hezzel Exposure- Год: 2014
Жанр: Industrial, Rhythmic Noise
Издатель (лейбл): Hands Productions
Каталожный номер: D204
Продолжительность: 01:06:51
Кодек: FLAC
Битрейт: Lossless
Тип рипа: tracks+.cue
Треклист:
01. Rasho (04:51)
02. I Will Hang (05:16)
03. Dac (04:58)
04. Fuckstep (03:56)
05. Brink Of War (04:36)
06. Becomedeath (04:08)
07. Second Chance (03:42)
08. No Matter What (04:34)
09. Lay Low (03:34)
10. Leider Nicht (04:53)
11. Test Negative (05:20)
12. Collateral (04:58)
13. Wither (03:59)
14. Cannot See (04:40)
15. Happy Faces (03:26)

Отчёт ЕАС:

Exact Audio Copy V1.0 beta 3 from 29. August 2011
EAC extraction logfile from 2. May 2014, 19:27
Hezzel / Exposure
Used drive  : HL-DT-STBDDVDRW CH10LS28   Adapter: 1  ID: 0
Read mode               : Secure
Utilize accurate stream : Yes
Defeat audio cache      : Yes
Make use of C2 pointers : No
Read offset correction                      : 667
Overread into Lead-In and Lead-Out          : No
Fill up missing offset samples with silence : Yes
Delete leading and trailing silent blocks   : No
Null samples used in CRC calculations       : Yes
Used interface                              : Native Win32 interface for Win NT & 2000
Gap handling                                : Appended to previous track
Used output format              : User Defined Encoder
Selected bitrate                : 1024 kBit/s
Quality                         : High
Add ID3 tag                     : No
Command line compressor         : C:\Program Files (x86)\Exact Audio Copy\Flac\flac.exe
Additional command line options : -8 -V -T "ARTIST=%artist%" -T "TITLE=%title%" -T "ALBUM=%albumtitle%" -T "DATE=%year%" -T "TRACKNUMBER=%tracknr%" -T "GENRE=%genre%" -T "PERFORMER=%albuminterpret%" -T "COMPOSER=%composer%" %haslyrics%--tag-from-file=LYRICS="%lyricsfile%"%haslyrics% -T "ALBUMARTIST=%albumartist%" -T "DISCNUMBER=%cdnumber%" -T "TOTALDISCS=%totalcds%" -T "TOTALTRACKS=%numtracks%" -T "COMMENT=%comment%" %source% -o %dest%
TOC of the extracted CD
     Track |   Start  |  Length  | Start sector | End sector
    ---------------------------------------------------------
        1  |  0:00.00 |  4:51.04 |         0    |    21828
        2  |  4:51.04 |  5:15.38 |     21829    |    45491
        3  | 10:06.42 |  4:57.54 |     45492    |    67820
        4  | 15:04.21 |  3:55.55 |     67821    |    85500
        5  | 19:00.01 |  4:35.39 |     85501    |   106164
        6  | 23:35.40 |  4:07.43 |    106165    |   124732
        7  | 27:43.08 |  3:41.60 |    124733    |   141367
        8  | 31:24.68 |  4:33.50 |    141368    |   161892
        9  | 35:58.43 |  3:34.29 |    161893    |   177971
       10  | 39:32.72 |  4:53.37 |    177972    |   199983
       11  | 44:26.34 |  5:20.16 |    199984    |   223999
       12  | 49:46.50 |  4:58.16 |    224000    |   246365
       13  | 54:44.66 |  3:59.06 |    246366    |   264296
       14  | 58:43.72 |  4:39.69 |    264297    |   285290
       15  | 63:23.66 |  3:26.13 |    285291    |   300753
Track  1
     Filename D:\Rips\Hezzel - Exposure - 2014 - FLAC\01 Rasho.wav
     Pre-gap length  0:00:02.00
     Peak level 99.9 %
     Extraction speed 1.3 X
     Track quality 100.0 %
     Test CRC 7C7EEBF3
     Copy CRC 7C7EEBF3
     Track not present in AccurateRip database
     Copy OK
Track  2
     Filename D:\Rips\Hezzel - Exposure - 2014 - FLAC\02 I Will Hang.wav
     Pre-gap length  0:00:02.00
     Peak level 99.9 %
     Extraction speed 1.5 X
     Track quality 100.0 %
     Test CRC 85F20A3F
     Copy CRC 85F20A3F
     Track not present in AccurateRip database
     Copy OK
Track  3
     Filename D:\Rips\Hezzel - Exposure - 2014 - FLAC\03 Dac.wav
     Pre-gap length  0:00:02.00
     Peak level 99.9 %
     Extraction speed 1.6 X
     Track quality 100.0 %
     Test CRC B8A7B271
     Copy CRC B8A7B271
     Track not present in AccurateRip database
     Copy OK
Track  4
     Filename D:\Rips\Hezzel - Exposure - 2014 - FLAC\04 Fuckstep.wav
     Pre-gap length  0:00:02.00
     Peak level 99.9 %
     Extraction speed 1.5 X
     Track quality 99.9 %
     Test CRC 77D35653
     Copy CRC 77D35653
     Track not present in AccurateRip database
     Copy OK
Track  5
     Filename D:\Rips\Hezzel - Exposure - 2014 - FLAC\05 Brink Of War.wav
     Pre-gap length  0:00:02.00
     Peak level 99.9 %
     Extraction speed 1.6 X
     Track quality 99.9 %
     Test CRC 2C8A81CE
     Copy CRC 2C8A81CE
     Track not present in AccurateRip database
     Copy OK
Track  6
     Filename D:\Rips\Hezzel - Exposure - 2014 - FLAC\06 Becomedeath.wav
     Pre-gap length  0:00:02.00
     Peak level 99.9 %
     Extraction speed 1.9 X
     Track quality 100.0 %
     Test CRC D6CB5D71
     Copy CRC D6CB5D71
     Track not present in AccurateRip database
     Copy OK
Track  7
     Filename D:\Rips\Hezzel - Exposure - 2014 - FLAC\07 Second Chance.wav
     Pre-gap length  0:00:02.00
     Peak level 99.9 %
     Extraction speed 1.9 X
     Track quality 100.0 %
     Test CRC 5A1B12BC
     Copy CRC 5A1B12BC
     Track not present in AccurateRip database
     Copy OK
Track  8
     Filename D:\Rips\Hezzel - Exposure - 2014 - FLAC\08 No Matter What.wav
     Pre-gap length  0:00:02.00
     Peak level 99.9 %
     Extraction speed 2.1 X
     Track quality 100.0 %
     Test CRC B7063F65
     Copy CRC B7063F65
     Track not present in AccurateRip database
     Copy OK
Track  9
     Filename D:\Rips\Hezzel - Exposure - 2014 - FLAC\09 Lay Low.wav
     Pre-gap length  0:00:02.00
     Peak level 98.2 %
     Extraction speed 2.1 X
     Track quality 100.0 %
     Test CRC B2741AA9
     Copy CRC B2741AA9
     Track not present in AccurateRip database
     Copy OK
Track 10
     Filename D:\Rips\Hezzel - Exposure - 2014 - FLAC\10 Leider Nicht.wav
     Pre-gap length  0:00:02.00
     Peak level 99.9 %
     Extraction speed 2.1 X
     Track quality 99.9 %
     Test CRC 51F18CEE
     Copy CRC 51F18CEE
     Track not present in AccurateRip database
     Copy OK
Track 11
     Filename D:\Rips\Hezzel - Exposure - 2014 - FLAC\11 Test Negative.wav
     Pre-gap length  0:00:02.00
     Peak level 99.9 %
     Extraction speed 2.4 X
     Track quality 100.0 %
     Test CRC 7A43463D
     Copy CRC 7A43463D
     Track not present in AccurateRip database
     Copy OK
Track 12
     Filename D:\Rips\Hezzel - Exposure - 2014 - FLAC\12 Collateral.wav
     Pre-gap length  0:00:02.00
     Peak level 99.9 %
     Extraction speed 2.5 X
     Track quality 100.0 %
     Test CRC 7373C766
     Copy CRC 7373C766
     Track not present in AccurateRip database
     Copy OK
Track 13
     Filename D:\Rips\Hezzel - Exposure - 2014 - FLAC\13 Wither.wav
     Pre-gap length  0:00:02.00
     Peak level 99.9 %
     Extraction speed 2.5 X
     Track quality 100.0 %
     Test CRC 1D54A1E4
     Copy CRC 1D54A1E4
     Track not present in AccurateRip database
     Copy OK
Track 14
     Filename D:\Rips\Hezzel - Exposure - 2014 - FLAC\14 Cannot See.wav
     Pre-gap length  0:00:02.00
     Peak level 99.9 %
     Extraction speed 2.6 X
     Track quality 100.0 %
     Test CRC 1C981565
     Copy CRC 1C981565
     Track not present in AccurateRip database
     Copy OK
Track 15
     Filename D:\Rips\Hezzel - Exposure - 2014 - FLAC\15 Happy Faces.wav
     Peak level 50.3 %
     Extraction speed 2.3 X
     Track quality 99.9 %
     Test CRC D691E121
     Copy CRC D691E121
     Track not present in AccurateRip database
     Copy OK
None of the tracks are present in the AccurateRip database
No errors occurred
End of status report
---- CUETools DB Plugin V2.1.3
[CTDB TOCID: rZaPNQJC_0XO9U4nxeo0aoYbTIo-] found, Submit result: rZaPNQJC_0XO9U4nxeo0aoYbTIo- has been confirmed
[47afcf19] (2/2) Accurately ripped
==== Log checksum 766A341AC4982C086424A9F7786D805AD234A661E8812F95F3CB8881F3DB6F12 ====

Отчёт auCDtect Task manager:

-----------------------
DON'T MODIFY THIS FILE
-----------------------
PERFORMER: auCDtect Task Manager, ver. 1.5.1RC6 build 1.5.1.7
Copyright (c) 2008-2010 y-soft. All rights reserved
http://y-soft.org
ANALYZER: auCDtect: CD records authenticity detector, version 0.8.2
Copyright (c) 2004 Oleg Berngardt. All rights reserved.
Copyright (c) 2004 Alexander Djourik. All rights reserved.
FILE: 01 Rasho.flac
  Size: 34343217 Hash: A9A10E37940955D504A1A5B7EA9B02F9 Accuracy: -m0
  Conclusion: CDDA 99%
  Signature: E44F523BCB6D3B4990AFB392BF15BD99650AA14A
FILE: 15 Happy Faces.flac
  Size: 18691575 Hash: 9F63A70F5554C1C1083E675623C9220E Accuracy: -m0
  Conclusion: CDDA 100%
  Signature: 6065D68521A49F5930C2C02348D1D970C2552679
FILE: 14 Cannot See.flac
  Size: 36496406 Hash: DD59D918173CB83CEF41EF89D6F647BA Accuracy: -m0
  Conclusion: CDDA 100%
  Signature: B270655DA50D5A83AF5A3A83910F69516752EA76
FILE: 13 Wither.flac
  Size: 23110364 Hash: 0D5A9E5237CB95FE61E890931A9D504F Accuracy: -m0
  Conclusion: CDDA 100%
  Signature: 9E04E4C0CA32FF990527E921C34A83D1708E3D0F
FILE: 12 Collateral.flac
  Size: 34088902 Hash: D7262B6459039EA674C130DFBBBFD7C3 Accuracy: -m0
  Conclusion: CDDA 100%
  Signature: D4AADD7DB4C2AB3C4E9665FB0A0AA8E77C0AC0F7
FILE: 11 Test Negative.flac
  Size: 41289160 Hash: C3800ED16E0E7C5DEC4240CF379C36C1 Accuracy: -m0
  Conclusion: CDDA 100%
  Signature: 3EF44EC132D9CFDBC68E676A84F9BD65537ACF9C
FILE: 10 Leider Nicht.flac
  Size: 35074819 Hash: CDCDAC8D315990B020D6C90E4D84D044 Accuracy: -m0
  Conclusion: CDDA 100%
  Signature: 6E475CD9D3CC41D4C65D1CE782094603CFC85B4F
FILE: 09 Lay Low.flac
  Size: 19554756 Hash: 8EF4330A8B51DE8157D7734C53AB64D8 Accuracy: -m0
  Conclusion: CDDA 100%
  Signature: 230522B5E54B6203B1E4BDC31E4799305BBB3D62
FILE: 08 No Matter What.flac
  Size: 31451083 Hash: DF9910A645DB512795B5034A00B313ED Accuracy: -m0
  Conclusion: CDDA 99%
  Signature: F1C5C943CB66045B2D8EF83D76D932E6C3B2AF60
FILE: 07 Second Chance.flac
  Size: 19851509 Hash: A7020CFFB24F06EE12727C6B3FFD9A96 Accuracy: -m0
  Conclusion: CDDA 100%
  Signature: AAC49DF5708BC336D392D90D9576E8C53495AB69
FILE: 06 Becomedeath.flac
  Size: 29102304 Hash: 6A1B4963662F005C64C4096DDDF08BB6 Accuracy: -m0
  Conclusion: CDDA 100%
  Signature: 2166F1F7A2614889A959E123C4B24589445C43FE
FILE: 05 Brink Of War.flac
  Size: 35618736 Hash: BDEC1282819829B0930D521AC91EA52F Accuracy: -m0
  Conclusion: CDDA 100%
  Signature: B6CC2A7A954793691FD4B5EF72C4D0E74E206AD7
FILE: 04 Fuckstep.flac
  Size: 26997629 Hash: 956D44AF4CAC3D849F2A56E89FCB70AD Accuracy: -m0
  Conclusion: CDDA 100%
  Signature: DE187C8DA3FF8E8867615629C89181D9C7EF5782
FILE: 03 Dac.flac
  Size: 35504728 Hash: D6A050511FA7401E00BCF2AE048E581A Accuracy: -m0
  Conclusion: CDDA 100%
  Signature: A9DD3740704221BC12A7A638CC1BA61749BB4C82
FILE: 02 I Will Hang.flac
  Size: 40286956 Hash: B05B32E9010FB699823B3930D6C5C556 Accuracy: -m0
  Conclusion: CDDA 100%
  Signature: C3D651EF742E80C91AC90572FBD1AE02CAAEC449

Discogs



Показать сообщения:    

Текущее время: 24-Май 10:41

Часовой пояс: UTC + 3


Вы не можете начинать темы
Вы не можете отвечать на сообщения
Вы не можете редактировать свои сообщения
Вы не можете удалять свои сообщения
Вы не можете голосовать в опросах
Вы не можете прикреплять файлы к сообщениям
Вы не можете скачивать файлы

!ВНИМАНИЕ!
Сайт не предоставляет электронные версии произведений, а занимается лишь коллекционированием и каталогизацией ссылок, присылаемых и публикуемых на форуме нашими читателями. Если вы являетесь правообладателем какого-либо представленного материала и не желаете, чтобы ссылка на него находилась в нашем каталоге, свяжитесь с нами, и мы незамедлительно удалим ее. Файлы для обмена на трекере предоставлены пользователями сайта, и администрация не несет ответственности за их содержание. Просьба не заливать файлы, защищенные авторскими правами, а также файлы нелегального содержания!