۩ ‼ Вы находитесь на Бесплатном торрент-трекере TORRNADA.com ۩ Зарегистрируйтесь для получения полного доступа ко всем функциям сайта ! ۩ После регистрации подпишитесь на нашу рассылку в своём профиле ۩
Auto Web Pinger

 

[Цитировать]

Chaos Magic (Timo Tolkki & Caterina) - Chaos Magic (2015) - Год: 2015
Жанр: Symphonic Power Metal
Продолжительность: 00:50:59
Лейбл: Frontiers Records
№ по каталогу: FR CD 696
Страна: Finland
Кодек: FLAC
Тип рипа: image+.cue
Битрейт: Lossless
Источник: RD :respekt:-Треклист:
01. I m Alive
02. Dangerous Game
03. One Drop Of Blood
04. Seraphim
05. From The Stars
06. A Little Too Late
07. Passionflow
08. Dead Memories
09. Please Don't Tell Me
10. Right Now
11. The Point Of No Return-

Отчёт ЕАС:

Exact Audio Copy V1.0 beta 3 from 29. August 2011
EAC extraction logfile from 18. July 2015, 8:24
Chaos Magic / Chaos Magic (FRCD696)
Used drive  : MATSHITABD-CMB UJ242AS   Adapter: 0  ID: 1
Read mode               : Secure
Utilize accurate stream : Yes
Defeat audio cache      : Yes
Make use of C2 pointers : No
Read offset correction                      : 103
Overread into Lead-In and Lead-Out          : No
Fill up missing offset samples with silence : Yes
Delete leading and trailing silent blocks   : No
Null samples used in CRC calculations       : Yes
Used interface                              : Installed external ASPI interface
Used output format              : User Defined Encoder
Selected bitrate                : 1024 kBit/s
Quality                         : High
Add ID3 tag                     : Yes
Command line compressor         : C:\Program Files (x86)\Exact Audio Copy\Flac\flac.exe
Additional command line options : -V -8 -T "Date=%year%" -T "Genre=%genre%" %source%
TOC of the extracted CD
     Track |   Start  |  Length  | Start sector | End sector
    ---------------------------------------------------------
        1  |  0:00.00 |  3:40.62 |         0    |    16561
        2  |  3:40.62 |  4:31.30 |     16562    |    36916
        3  |  8:12.17 |  4:26.34 |     36917    |    56900
        4  | 12:38.51 |  4:45.48 |     56901    |    78323
        5  | 17:24.24 |  4:45.45 |     78324    |    99743
        6  | 22:09.69 |  5:02.21 |     99744    |   122414
        7  | 27:12.15 |  4:13.46 |    122415    |   141435
        8  | 31:25.61 |  5:07.10 |    141436    |   164470
        9  | 36:32.71 |  4:30.18 |    164471    |   184738
       10  | 41:03.14 |  4:32.40 |    184739    |   205178
       11  | 45:35.54 |  5:23.45 |    205179    |   229448
Range status and errors
Selected range
     Filename C:\EACrip\Chaos Magic - Chaos Magic (FRCD696).wav
     Peak level 94.4 %
     Extraction speed 2.5 X
     Range quality 100.0 %
     Test CRC 6C28F37C
     Copy CRC 6C28F37C
     Copy OK
No errors occurred
AccurateRip summary
Track  1  cannot be verified as accurate (confidence 1)  [C56071EC], AccurateRip returned [6E1201CD]  (AR v2)
Track  2  cannot be verified as accurate (confidence 1)  [CD9E5262], AccurateRip returned [3E2E5ABA]  (AR v2)
Track  3  cannot be verified as accurate (confidence 1)  [BEAF6C9F], AccurateRip returned [5D1AF61B]  (AR v2)
Track  4  cannot be verified as accurate (confidence 1)  [76048BF2], AccurateRip returned [28B54C88]  (AR v2)
Track  5  cannot be verified as accurate (confidence 1)  [BD3112EB], AccurateRip returned [88AB87EF]  (AR v2)
Track  6  cannot be verified as accurate (confidence 1)  [3298ED10], AccurateRip returned [52538C29]  (AR v2)
Track  7  cannot be verified as accurate (confidence 1)  [55ECDDF7], AccurateRip returned [2055AF33]  (AR v2)
Track  8  cannot be verified as accurate (confidence 1)  [3A1BCBF6], AccurateRip returned [AA06697A]  (AR v2)
Track  9  cannot be verified as accurate (confidence 1)  [CF4A67D3], AccurateRip returned [2584CEF9]  (AR v2)
Track 10  cannot be verified as accurate (confidence 1)  [A50595CB], AccurateRip returned [41AB7A55]  (AR v2)
Track 11  cannot be verified as accurate (confidence 1)  [379C5778], AccurateRip returned [78071AAA]  (AR v2)
No tracks could be verified as accurate
You may have a different pressing from the one(s) in the database
End of status report
==== Log checksum 8FD4845DCA3F689F151CD8A7F607491F4EB8298BD023697F285D933E5F1CC2C8 ====

Отчёт auCDtect Task manager:

-----------------------
DON'T MODIFY THIS FILE
-----------------------
PERFORMER: auCDtect Task Manager, ver. 1.6.0 RC1 build 1.6.0.1
Copyright (c) 2008-2010 y-soft. All rights reserved
http://y-soft.org
ANALYZER: auCDtect: CD records authenticity detector, version 0.8.2
Copyright (c) 2004 Oleg Berngardt. All rights reserved.
Copyright (c) 2004 Alexander Djourik. All rights reserved.
FILE: Chaos Magic - Chaos Magic (FRCD696).flac
  Size: 362732475 Hash: CFE35C081F3C27B7771554F7F31926F2 Accuracy: -m0
  Conclusion: CDDA 100%
  Signature: 79E942A9EE7B543F4A91A76FF729E5046CA8F5E6
Время раздачи: c 20:00 до 22:00
[torrnada.com].t106679.torrent
Торрент: Зарегистрирован   [ 2015-07-20 08:22 ] · 56D72C355027269D9B05B7D746AB6FEAD5BFAF58

Скачать .torrent

Скачать

16 KB

Статус: проверено
Скачан: 40 раз
Размер: 361 MB
Оценка:  - (Голосов: 0) СуперХорошоСреднеТак себеОтстой
Поблагодарили: 2  Спасибо   (список)
Поделится:


Показать сообщения:    

Текущее время: 21-Май 09:52

Часовой пояс: UTC + 3


Вы не можете начинать темы
Вы не можете отвечать на сообщения
Вы не можете редактировать свои сообщения
Вы не можете удалять свои сообщения
Вы не можете голосовать в опросах
Вы не можете прикреплять файлы к сообщениям
Вы можете скачивать файлы

!ВНИМАНИЕ!
Сайт не предоставляет электронные версии произведений, а занимается лишь коллекционированием и каталогизацией ссылок, присылаемых и публикуемых на форуме нашими читателями. Если вы являетесь правообладателем какого-либо представленного материала и не желаете, чтобы ссылка на него находилась в нашем каталоге, свяжитесь с нами, и мы незамедлительно удалим ее. Файлы для обмена на трекере предоставлены пользователями сайта, и администрация не несет ответственности за их содержание. Просьба не заливать файлы, защищенные авторскими правами, а также файлы нелегального содержания!