۩ ‼ Вы находитесь на Бесплатном торрент-трекере TORRNADA.com ۩ Зарегистрируйтесь для получения полного доступа ко всем функциям сайта ! ۩ После регистрации подпишитесь на нашу рассылку в своём профиле ۩
Auto Web Pinger

 

[Цитировать]

Название: Спеши любить
Оригинальное название: A Walk to Remember
Год выхода: 2002
Жанр: драма, мелодрама
Режиссер: Адам Шенкман / Adam Shankman
В ролях: Шэйн Уэст, Мэнди Мур, Питер Койот, Дэрил Ханна, Лорен Джерман, Клейн Кроуфорд, Аль Томпсон, Пас де ла Уэрта, Джонатан Паркс Джордан, Мэтт Лутс
О фильме: Лэндон Картер — кумир своей школы: он независим, красив и жесток к изгоям. И конечно, он не замечает невзрачную Джэйми, думающую только об учебе. После очередной дурацкой выходки Картера заставляют заниматься с отстающими и играть в школьном спектакле.
Тут уж ему не обойтись без помощи скромной отличницы. Джэйми соглашается помочь Лэндону, но только если он пообещает, что не будет влюбляться в нее. Самонадеянный парень охотно дает клятву, но вскоре он убедится, что сдержать ее будет очень непросто…
«Наша любовь, как ветер, ее не видишь, но чувствуешь...»

Релиз от -
Автор рипа: Elheym
Выпущено: США ‖ DiNovi Pictures, Gaylord Films, Pandora Cinema, Warner Bros. Pictures
Продолжительность: 01:42:02
Перевод: Профессиональный (полное дублирование)
Оригинальная аудиодорожка: английская
Субтитры: русские (полные), английские (полные)
Главы: присутствуют, сохранены оригинальные
Дополнительные аудиодорожки:
+ Профессиональный (многоголосый, закадровый)
+ Одноголосый закадровый (диктор Digital Force)
Файл:
Формат: MKV
Качество: BDRip-AVC (источник: NovaLan / Blu-ray Remux [A.Walk.To.Remember.2002.BDRemux.1080p.NovaLan] / 1080p)
Видео: 1032x438 (2.35:1), 23.976 fps, MPEG-4 AVC, ~2900 kbps avg, 0.268 bit/pixel
Аудио #1: 48 kHz, AC3 Dolby Digital, 3/2 (L,C,R,l,r) + LFE ch, ~448 kbps avg (DUB)
Аудио #2: 48 kHz, AC3 Dolby Digital, 3/2 (L,C,R,l,r) + LFE ch, ~448 kbps avg (ENG)
Аудио #3: 48 kHz, AC3 Dolby Digital, 3/2 (L,C,R,l,r) + LFE ch, ~384 kbps avg (MVO) (отдельно)
Аудио #4: 48 kHz, AC3 Dolby Digital, 2/0 (L,R) ch, ~192 kbps avg (VO) (отдельно)
Сэмпл: скачать

MediaInfo

Уникальный идентификатор : 242579906191451047006544253105304124800 (0xB67F30C62F9477BCA95ABAB2D8463D80)
Полное имя : A.Walk.To.Remember.2002.DUAL.BDRip-AVC.x264.AC3.-HQCLUB.mkv
Формат : Matroska
Версия формата : Version 2
Размер файла : 2,70 Гбайт
Продолжительность : 1 ч. 42 м.
Общий поток : 3796 Кбит/сек
Название фильма : Спеши любить / Памятная прогулка / A Walk To Remember (2002) BDRip-AVC by HQCLUB [Elheym]
Дата кодирования : UTC 2015-07-19 10:38:49
Программа кодирования : mkvmerge v5.2.0 ('I can't explain') built on Dec 18 2011 18:12:03
Библиотека кодирования : libebml v1.2.3 + libmatroska v1.3.0
Attachements : Cover.jpg
Видео
Идентификатор : 1
Формат : AVC
Формат/Информация : Advanced Video Codec
Профиль формата : High@L4
Параметр CABAC формата : Да
Параметр ReFrames формата : 15 кадров
Идентификатор кодека : V_MPEG4/ISO/AVC
Продолжительность : 1 ч. 42 м.
Битрейт : 2900 Кбит/сек
Ширина : 1032 пикселя
Высота : 438 пикселей
Соотношение сторон : 2,35:1
Режим частоты кадров : Постоянный
Частота кадров : 23,976 кадра/сек
Цветовое пространство : YUV
Субдискретизация насыщенности : 4:2:0
Битовая глубина : 8 бит
Тип развёртки : Прогрессивная
Бит/(Пиксели*Кадры) : 0.268
Размер потока : 2,01 Гбайт (74%)
Заголовок : Спеши любить / Памятная прогулка / A Walk To Remember (2002) BDRip-AVC by HQCLUB [Elheym]
Библиотека кодирования : x264 core 146 r0+2586 e393126 t_mod_Custom [8-bit@all X86_64]
Настройки программы : cabac=1 / ref=15 / deblock=1:-3:-2 / analyse=0x3:0x133 / me=umh / subme=11 / psy=1 / fade_compensate=0.00 / psy_rd=1.10:0.00 / mixed_ref=1 / me_range=32 / chroma_me=1 / trellis=2 / 8x8dct=1 / cqm=0 / deadzone=21,11 / fast_pskip=0 / chroma_qp_offset=-2 / threads=6 / lookahead_threads=2 / sliced_threads=0 / nr=0 / decimate=1 / interlaced=0 / bluray_compat=0 / constrained_intra=0 / fgo=0 / bframes=9 / b_pyramid=2 / b_adapt=2 / b_bias=0 / direct=3 / weightb=1 / open_gop=0 / weightp=2 / keyint=240 / keyint_min=23 / scenecut=40 / intra_refresh=0 / rc_lookahead=80 / rc=2pass / mbtree=0 / bitrate=2900 / ratetol=1.0 / qcomp=0.70 / qpmin=0:0:0 / qpmax=69:69:69 / qpstep=4 / cplxblur=20.0 / qblur=0.5 / vbv_maxrate=20000 / vbv_bufsize=25000 / nal_hrd=none / filler=0 / ip_ratio=1.40 / pb_ratio=1.30 / aq=2:0.60 / aq-sensitivity=14.00 / aq-factor=1.00:1.00:1.00 / aq2=0 / aq3=0 / zones=141540,146730,b=0.35
Язык : English
Default : Да
Forced : Нет
Аудио #1
Идентификатор : 2
Формат : AC-3
Формат/Информация : Audio Coding 3
Расширение режима : CM (complete main)
Параметр Endianness формата : Big
Идентификатор кодека : A_AC3
Продолжительность : 1 ч. 42 м.
Вид битрейта : Постоянный
Битрейт : 448 Кбит/сек
Каналы : 6 каналов
Расположение каналов : Front: L C R, Side: L R, LFE
Частота : 48,0 КГц
Метод сжатия : С потерями
Размер потока : 327 Мбайт (12%)
Заголовок : АС3 5.1 @ 448 kbps - Dub
Язык : Russian
Default : Нет
Forced : Нет
Аудио #2
Идентификатор : 3
Формат : AC-3
Формат/Информация : Audio Coding 3
Расширение режима : CM (complete main)
Параметр Endianness формата : Big
Идентификатор кодека : A_AC3
Продолжительность : 1 ч. 42 м.
Вид битрейта : Постоянный
Битрейт : 448 Кбит/сек
Каналы : 6 каналов
Расположение каналов : Front: L C R, Side: L R, LFE
Частота : 48,0 КГц
Метод сжатия : С потерями
Размер потока : 327 Мбайт (12%)
Заголовок : АС3 5.1 @ 448 kbps - Original
Язык : English
Default : Нет
Forced : Нет
Текст #1
Идентификатор : 4
Формат : UTF-8
Идентификатор кодека : S_TEXT/UTF8
Идентификатор кодека/Информация : UTF-8 Plain Text
Заголовок : Full
Язык : Russian
Default : Нет
Forced : Нет
Текст #2
Идентификатор : 5
Формат : UTF-8
Идентификатор кодека : S_TEXT/UTF8
Идентификатор кодека/Информация : UTF-8 Plain Text
Заголовок : Full
Язык : English
Default : Нет
Forced : Нет
Меню
00:00:00.000 : :Chapter 1
00:03:42.560 : :Chapter 2
00:09:14.320 : :Chapter 3
00:12:40.240 : :Chapter 4
00:18:23.836 : :Chapter 5
00:19:38.839 : :Chapter 6
00:23:15.680 : :Chapter 7
00:26:53.559 : :Chapter 8
00:31:58.279 : :Chapter 9
00:36:28.519 : :Chapter 10
00:41:00.639 : :Chapter 11
00:43:56.920 : :Chapter 12
00:47:49.880 : :Chapter 13
00:54:05.141 : :Chapter 14
00:57:44.239 : :Chapter 15
01:00:00.480 : :Chapter 16
01:04:32.440 : :Chapter 17
01:08:23.840 : :Chapter 18
01:12:58.707 : :Chapter 19
01:15:42.199 : :Chapter 20
01:20:31.840 : :Chapter 21
01:24:32.079 : :Chapter 22
01:28:13.488 : :Chapter 23
01:38:24.632 : :Chapter 24

x264 log

x264 [info]: frame I:1172 Avg QP:14.86 size: 87815
x264 [info]: frame P:31664 Avg QP:17.54 size: 29994
x264 [info]: frame B:113895 Avg QP:19.63 size: 10223
x264 [info]: consecutive B-frames: 1.5% 2.0% 5.6% 27.2% 25.4% 31.9% 4.6% 1.2% 0.4% 0.3%
x264 [info]: ref P L0: 40.3% 10.6% 18.2% 6.4% 5.6% 3.9% 3.7% 1.9% 1.9% 1.5% 1.5% 1.2% 1.2% 1.0% 1.1% 0.1%
x264 [info]: ref B L0: 78.9% 9.3% 3.7% 2.0% 1.4% 1.2% 0.9% 0.6% 0.5% 0.4% 0.4% 0.3% 0.2% 0.2%
x264 [info]: ref B L1: 95.2% 4.8%


Показать сообщения:    

Текущее время: 19-Май 12:17

Часовой пояс: UTC + 3


Вы не можете начинать темы
Вы не можете отвечать на сообщения
Вы не можете редактировать свои сообщения
Вы не можете удалять свои сообщения
Вы не можете голосовать в опросах
Вы не можете прикреплять файлы к сообщениям
Вы не можете скачивать файлы

!ВНИМАНИЕ!
Сайт не предоставляет электронные версии произведений, а занимается лишь коллекционированием и каталогизацией ссылок, присылаемых и публикуемых на форуме нашими читателями. Если вы являетесь правообладателем какого-либо представленного материала и не желаете, чтобы ссылка на него находилась в нашем каталоге, свяжитесь с нами, и мы незамедлительно удалим ее. Файлы для обмена на трекере предоставлены пользователями сайта, и администрация не несет ответственности за их содержание. Просьба не заливать файлы, защищенные авторскими правами, а также файлы нелегального содержания!