۩ ‼ Вы находитесь на Бесплатном торрент-трекере TORRNADA.com ۩ Зарегистрируйтесь для получения полного доступа ко всем функциям сайта ! ۩ После регистрации подпишитесь на нашу рассылку в своём профиле ۩
Auto Web Pinger

 

[Цитировать]

Информация о фильме
Название: Колодец (Последние выжившие)
Оригинальное название: The Well (The Last Survivors)
Год выпуска: 2014
Жанр: Боевик, триллер, ужасы
Режиссер: Томас С. Хэммок
В ролях: Хейли Лу Ричардсон, Бу Бу Стюарт, Макс Чарльз, Николь Арианна Фокс, Майкл Уэлш, Джон Грайз, Майкл Масси, Рина Оуэн, Лео Ли, Барбара Крэмптон
О фильме: Пост-апокалиптический триллер о ближайшем будущем. Пресная вода, самый ценный товар, закончилась. Жадный до воды барон, определяет, кому жить, а кому умереть. Героиня Кендал, храбрая 17-летняя девушка, встает на пути этого злодея....

Выпущено: США, Federighi Films
Продолжительность: 01:34:53
Озвучивание: Любительское (одноголосое) Хихикающий доктор по переводу Enigma
Сведение звука: Sergei7721
Файл
Качество: HDRip (AVC)
Видео: MPEG-4 AVC, 1811 Кбит/с, 1024x428
Аудио: Русский (АС3, 6 ch, 384 Кбит/с), английский (АС3, 6 ch, 448 Кбит/с)

MI

General
Unique ID : 186084450031658248811080071703880298846 (0x8BFE8FBB31445721A5178471B924715E)
Complete name : C:The.last.survivors.2014.xixidok.HDRip.AVC.ExKinoRay.mkv
Format : Matroska
Format version : Version 4 / Version 2
File size : 1.75 GiB
Duration : 1h 34mn
Overall bit rate : 2 640 Kbps
Movie name : The last survivors 2014 from ExKinoRay
Encoded date : UTC 2015-07-18 05:59:12
Writing application : mkvmerge v6.6.0 ('The Edge Of The In Between') built on Dec 1 2013 17:55:00
Writing library : libebml v1.3.0 + libmatroska v1.4.1
Video
ID : 1
Format : AVC
Format/Info : Advanced Video Codec
Format profile : High@L4.1
Format settings, CABAC : Yes
Format settings, ReFrames : 10 frames
Codec ID : V_MPEG4/ISO/AVC
Duration : 1h 34mn
Bit rate : 1 811 Kbps
Width : 1 024 pixels
Height : 428 pixels
Display aspect ratio : 2.40:1
Frame rate mode : Constant
Frame rate : 23.976 fps
Color space : YUV
Chroma subsampling : 4:2:0
Bit depth : 8 bits
Scan type : Progressive
Bits/(Pixel*Frame) : 0.172
Stream size : 1.16 GiB (67%)
Title : Enigma
Writing library : x264 core 133 r2334 a3ac64b
Encoding settings : cabac=1 / ref=10 / deblock=1:-2:-2 / analyse=0x3:0x113 / me=umh / subme=10 / psy=1 / psy_rd=1.05:0.15 / mixed_ref=1 / me_range=32 / chroma_me=1 / trellis=2 / 8x8dct=1 / cqm=0 / deadzone=21,11 / fast_pskip=0 / chroma_qp_offset=-3 / threads=12 / lookahead_threads=2 / sliced_threads=0 / nr=0 / decimate=0 / interlaced=0 / bluray_compat=0 / constrained_intra=0 / bframes=9 / b_pyramid=2 / b_adapt=2 / b_bias=0 / direct=3 / weightb=1 / open_gop=0 / weightp=2 / keyint=240 / keyint_min=23 / scenecut=40 / intra_refresh=0 / rc_lookahead=40 / rc=2pass / mbtree=0 / bitrate=1811 / ratetol=1.0 / qcomp=0.65 / qpmin=0 / qpmax=51 / qpstep=4 / cplxblur=20.0 / qblur=0.5 / vbv_maxrate=50000 / vbv_bufsize=62500 / nal_hrd=none / ip_ratio=1.40 / pb_ratio=1.30 / aq=1:1.00
Language : English
Default : Yes
Forced : No
Color primaries : BT.709
Transfer characteristics : BT.709
Matrix coefficients : BT.709
Audio #1
ID : 2
Format : AC-3
Format/Info : Audio Coding 3
Mode extension : CM (complete main)
Format settings, Endianness : Big
Codec ID : A_AC3
Duration : 1h 34mn
Bit rate mode : Constant
Bit rate : 384 Kbps
Channel(s) : 6 channels
Channel positions : Front: L C R, Side: L R, LFE
Sampling rate : 48.0 KHz
Bit depth : 16 bits
Compression mode : Lossy
Stream size : 261 MiB (15%)
Title : xixidok
Language : Russian
Default : Yes
Forced : No
Audio #2
ID : 3
Format : AC-3
Format/Info : Audio Coding 3
Mode extension : CM (complete main)
Format settings, Endianness : Big
Codec ID : A_AC3
Duration : 1h 34mn
Bit rate mode : Constant
Bit rate : 448 Kbps
Channel(s) : 6 channels
Channel positions : Front: L C R, Side: L R, LFE
Sampling rate : 48.0 KHz
Bit depth : 16 bits
Compression mode : Lossy
Stream size : 304 MiB (17%)
Language : English
Default : No
Forced : No
Menu
00:00:00.000 : en:00:00:00.000
00:09:52.967 : en:00:09:52.967
00:21:55.022 : en:00:21:55.022
00:33:42.979 : en:00:33:42.979
00:44:28.958 : en:00:44:28.958
00:57:49.966 : en:00:57:49.966
01:13:47.965 : en:01:13:47.965
01:23:55.948 : en:01:23:55.948
01:29:51.928 : en:01:29:51.928


Показать сообщения:    

Текущее время: 21-Май 04:10

Часовой пояс: UTC + 3


Вы не можете начинать темы
Вы не можете отвечать на сообщения
Вы не можете редактировать свои сообщения
Вы не можете удалять свои сообщения
Вы не можете голосовать в опросах
Вы не можете прикреплять файлы к сообщениям
Вы не можете скачивать файлы

!ВНИМАНИЕ!
Сайт не предоставляет электронные версии произведений, а занимается лишь коллекционированием и каталогизацией ссылок, присылаемых и публикуемых на форуме нашими читателями. Если вы являетесь правообладателем какого-либо представленного материала и не желаете, чтобы ссылка на него находилась в нашем каталоге, свяжитесь с нами, и мы незамедлительно удалим ее. Файлы для обмена на трекере предоставлены пользователями сайта, и администрация не несет ответственности за их содержание. Просьба не заливать файлы, защищенные авторскими правами, а также файлы нелегального содержания!