۩ ‼ Вы находитесь на Бесплатном торрент-трекере TORRNADA.com ۩ Зарегистрируйтесь для получения полного доступа ко всем функциям сайта ! ۩ После регистрации подпишитесь на нашу рассылку в своём профиле ۩
Auto Web Pinger

 

[Цитировать]

Стальные птицы / Air Warriors (2014) IPTVRip (3 серии из ??) [обновляемая]- Телекомпания: США, Red Rock Films
Жанр: Документальный, авиация, история
Описание:
Начиная с первого полета в 1903 году, человечество стремилось покорить небо, неустанно изобретая и разрабатывая целый ряд боевых самолетов. Сериал рассказывает о создании некоторых самолетов и вертолетов, которые навсегда вошли в историю военной авиации. В частности мы узнаем об американском всепогодном тактическом истребителе Макдоннел-Дуглас F-15 «Eagle», об ударном вертолете армии США AH-64 «Apache» и об уникальном конвертоплане V-22 «Osprey», который сочетает в себе отдельные возможности самолёта и вертолёта.
Продолжительность: 3 х ~ 00:50:58
Качество видео: IPTVRip
Перевод: Одноголосый закадровый, профессиональный
Видео: DivX 5, 704x400, ~1817 kbps
Аудио: AC3, 2 ch, 192 kbps, CBR

Список выпусков/серий

1. F-15 «Eagle»
Американский всепогодный тактический истребитель Макдоннел-Дуглас F-15 «Eagle» определенно является королем ВВС США. Пилоты и эксперты расскажут о том, как этот самолет стал настоящей легендой.
2. AH-64 «Apache»
Основным ударным вертолётом армии США является AH-64 «Apache». Мы узнаем, как эта боевая супермашина стала одним из самых успешных орудий в сражениях высокой сложности.
3. V-22 «Osprey»
Американский конвертоплан V-22 «Osprey», сочетающий отдельные возможности самолёта и вертолёта, не имеет аналогов в других странах. Мы узнаем об истории создания этой уникальной машины.

Mediainfo:

Стальные.птицы.2014.DivX.IPTVRip.alf62\Стальные.птицы.(1.серия).F-15.Eagle.2014.DivX.IPTVRip.alf62.avi
Формат                                   : AVI
Формат/Информация                        : Audio Video Interleave
Размер файла                             : 736 Мбайт
Продолжительность                        : 50 м.
Общий поток                              : 2019 Кбит/сек
Библиотека кодирования                   : Boilsoft Joiner build 2411/release
Видео
Идентификатор                            : 0
Формат                                   : MPEG-4 Visual
Профиль формата                          : Advanced Simple@L5
Параметр BVOP формата                    : 2
Параметр QPel формата                    : Нет
Параметр GMC формата                     : Без точки перехода
Параметр матрицы формата                 : Default (H.263)
Идентификатор кодека                     : DX50
Идентификатор кодека/Подсказка           : DivX 5
Продолжительность                        : 50 м.
Битрейт                                  : 1817 Кбит/сек
Ширина                                   : 704 пикселя
Высота                                   : 400 пикселей
Соотношение сторон                       : 16:9
Частота кадров                           : 25,000 кадров/сек
Цветовое пространство                    : YUV
Субдискретизация насыщенности            : 4:2:0
Битовая глубина                          : 8 бит
Тип развёртки                            : Прогрессивная
Метод сжатия                             : С потерями
Бит/(Пиксели*Кадры)                      : 0.258
Размер потока                            : 663 Мбайт (90%)
Библиотека кодирования                   : XviD 73
Аудио
Идентификатор                            : 1
Формат                                   : AC-3
Формат/Информация                        : Audio Coding 3
Расширение режима                        : CM (complete main)
Параметр Endianness формата              : Big
Идентификатор кодека                     : 2000
Продолжительность                        : 50 м.
Вид битрейта                             : Постоянный
Битрейт                                  : 192 Кбит/сек
Каналы                                   : 2 канала
Расположение каналов                     : Front: L R
Частота                                  : 48,0 КГц
Битовая глубина                          : 16 бит
Метод сжатия                             : С потерями
Размер потока                            : 70,0 Мбайт (10%)
Выравнивание                             : Разделение по промежуткам
Продолжительность промежутка             : 40  мс. (1,00 видеокадр)
Время предзагрузки промежутка            : 500  мс.

Дополнительная информация:

Авторство релиза - alf62
Внимание! Раздача ведётся путём добавления новых серий
Внимание! Раздача ведётся путём добавления новых серий; при каждом добавлении создаётся новый торрент. Чтобы начать докачку новой серии, пользователям необходимо сделать следующее:
• Остановить скачивание.
• Удалить старый торрент у себя из клиента (старые серии удалять не надо).
• Скачать новый торрент и запустить его у себя в клиенте вместо старого, при этом указать клиенту путь в старую папку куда и должно происходить скачивание новых серий.
Ваш клиент при этом должен произвести хеширование (проверку) старой папки (если не производит сам - помогите ему сделать это), и будет докачивать только те серии которых у вас ещё нет. Старые серии при этом не удаляются, а продолжают раздаваться!
Eсли вы уже удалили старые серии, то предотвратить повторную закачку старых серий можно, отжав галочку в соответсвующих местах при запуске нового торрента. По возможности, желательно не удалять старые серии как можно дольше чтобы релизёр не столько продолжал раздавать старые серии, а смог сконцентрироваться на новых.
Скриншоты:

Дополнительные скриншоты:






Не жилим спасибо. Не забываем голосовать за трекер!!!


Показать сообщения:    

Текущее время: 23-Май 16:51

Часовой пояс: UTC + 3


Вы не можете начинать темы
Вы не можете отвечать на сообщения
Вы не можете редактировать свои сообщения
Вы не можете удалять свои сообщения
Вы не можете голосовать в опросах
Вы не можете прикреплять файлы к сообщениям
Вы не можете скачивать файлы

!ВНИМАНИЕ!
Сайт не предоставляет электронные версии произведений, а занимается лишь коллекционированием и каталогизацией ссылок, присылаемых и публикуемых на форуме нашими читателями. Если вы являетесь правообладателем какого-либо представленного материала и не желаете, чтобы ссылка на него находилась в нашем каталоге, свяжитесь с нами, и мы незамедлительно удалим ее. Файлы для обмена на трекере предоставлены пользователями сайта, и администрация не несет ответственности за их содержание. Просьба не заливать файлы, защищенные авторскими правами, а также файлы нелегального содержания!