۩ ‼ Вы находитесь на Бесплатном торрент-трекере TORRNADA.com ۩ Зарегистрируйтесь для получения полного доступа ко всем функциям сайта ! ۩ После регистрации подпишитесь на нашу рассылку в своём профиле ۩
Auto Web Pinger

 

[Цитировать]

Выдающиеся летчики. Александр Федотов
Дата/Год выпуска: 2014
Страна: Россия
Жанр: документальный
Продолжительность: 00:37:59
Перевод: Не требуется
Описание: «Оставить след на земле». Для каждого человека это выражение имеет свой собственный смысл и значение. Кто-то считает, что должен посадить дерево, вырастить сына и построить дом. Кто-то посвящает жизнь поиску решения сложнейшей математической задачи или созданию лекарства от смертельной болезни.
Наследие художника - его картины. Композитор продолжает жить в своей музыке. А что остаётся после лётчиков - испытателей? Не всегда их труд можно оценить привычными категориями, потрогать руками...
Но есть в этой профессии люди, чьё наследие сложно переоценить. Именно таким человеком был герой этого фильма. Испытанные им самолёты стоят на вооружении отечественной армии до сих пор. Автор 18-и мировых рекордов. Заслуженный лётчик-испытатель СССР, Герой Советского Союза, награждённый золотой медалью международной авиационной федерации. Генерал-майор авиации - Александр Федотов оставил нам в наследство лучшие в мире истребители и немногочисленные, скупые записи в своём дневнике...
Доп. информация: Производство: ООО "Вианж продакшн", ОАО "ТРК ВС РФ "Звезда"
Сэмпл: http://sendfile.su/1138238
качество: TVRip
формат: AVI
Видео: XviD, 1688 Кбит/сек, 720 x 416 (1.731), 25.000 fps
Аудио: МР3, 128 Кбит/сек, 2 канала, 48,0 КГц

MediaInfo

Общее
Полное имя : T:\Мои раздачи\Выдающиеся летчики. Александр Федотов (2014)\Выдающиеся летчики. Александр Федотов (2014).avi
Формат : AVI
Формат/Информация : Audio Video Interleave
Размер файла : 496 Мбайт
Продолжительность : 37 м.
Общий поток : 1826 Кбит/сек
Программа кодирования : VirtualDubModRus 1.5.10.2 (build 2542/release)
Библиотека кодирования : VirtualDubMod build 2542/release
Видео
Идентификатор : 0
Формат : MPEG-4 Visual
Профиль формата : Advanced Simple@L5
Параметр BVOP формата : 2
Параметр QPel формата : Нет
Параметр GMC формата : Без точки перехода
Параметр матрицы формата : Default (H.263)
Идентификатор кодека : XVID
Идентификатор кодека/Подсказка : XviD
Продолжительность : 37 м.
Битрейт : 1688 Кбит/сек
Ширина : 720 пикселей
Высота : 416 пикселей
Соотношение сторон : 1,731
Частота кадров : 25,000 кадров/сек
Цветовое пространство : YUV
Субдискретизация насыщенности : 4:2:0
Битовая глубина : 8 бит
Тип развёртки : Прогрессивная
Метод сжатия : С потерями
Бит/(Пиксели*Кадры) : 0.225
Размер потока : 458 Мбайт (92%)
Библиотека кодирования : XviD 1.2.1 (UTC 2008-12-04)
Аудио
Идентификатор : 1
Формат : MPEG Audio
Версия формата : Version 1
Профиль формата : Layer 3
Идентификатор кодека : 55
Идентификатор кодека/Подсказка : MP3
Продолжительность : 37 м.
Вид битрейта : Постоянный
Битрейт : 128 Кбит/сек
Каналы : 2 канала
Частота : 48,0 КГц
Метод сжатия : С потерями
Размер потока : 34,8 Мбайт (7%)
Выравнивание : Соединение по промежуткам
Продолжительность промежутка : 40 мс. (1,00 видеокадр)
Время предзагрузки промежутка : 504 мс.

Скриншоты

Не жилим спасибо. Не забываем голосовать за трекер!!!


Показать сообщения:    

Текущее время: 24-Май 08:40

Часовой пояс: UTC + 3


Вы не можете начинать темы
Вы не можете отвечать на сообщения
Вы не можете редактировать свои сообщения
Вы не можете удалять свои сообщения
Вы не можете голосовать в опросах
Вы не можете прикреплять файлы к сообщениям
Вы не можете скачивать файлы

!ВНИМАНИЕ!
Сайт не предоставляет электронные версии произведений, а занимается лишь коллекционированием и каталогизацией ссылок, присылаемых и публикуемых на форуме нашими читателями. Если вы являетесь правообладателем какого-либо представленного материала и не желаете, чтобы ссылка на него находилась в нашем каталоге, свяжитесь с нами, и мы незамедлительно удалим ее. Файлы для обмена на трекере предоставлены пользователями сайта, и администрация не несет ответственности за их содержание. Просьба не заливать файлы, защищенные авторскими правами, а также файлы нелегального содержания!