۩ ‼ Вы находитесь на Бесплатном торрент-трекере TORRNADA.com ۩ Зарегистрируйтесь для получения полного доступа ко всем функциям сайта ! ۩ После регистрации подпишитесь на нашу рассылку в своём профиле ۩
Auto Web Pinger

 

[Цитировать]

Информация о фильме
Название: Планкетт и Маклейн
Оригинальное название: Plunkett and MaCleane
Год выхода: 1999
Жанр: приключения, драма
Режиссер: Джэйк Скотт / Jake Scott
В ролях: Лив Тайлер, Джонни Ли Миллер, Айэйн Робертсон, Роберт Карлайл, Кен Стотт, Томми Фланаган, Джеймс Торнтон, Теренс Ригби, Кристиан Камарго, Нив МакИнтош, Мэтт Лукас, Дэвид Уоллиямс, Александр Армстронг, Ян Кузелка, Владимир Яворски, Алан Камминг, Майкл Гэмбон, Карел Добры, Николас Фаррелл, Гордон Ловитт, Клер Рашбрук, Тим МакМаллан, Карел Полисенский, Джефф Наттолл, Мартин Серен, Дин Кук, Аннабел Брукс, Тони Модсли, Алекс Палмер, Сьюзан Порретт, Никола МакОлифф, Анна Кивени, Жак Мату, Майкл Калкин, Мюррэй Лэклэн Янг, Дейв Аткинз
О фильме:
Англия, XVIII век. Уилл Планкетт — обыкновенный бездельник-простолюдин, променявший профессию аптекаря на романтику большой дороги. Джеймс Маклейн — бывший аристократ, погрязший в долгах и потому вынужденный круто изменить свою жизнь. Вместе Планкетт и Маклейн — неуловимые и никем не превзойденные разбойники, осуществляющие самые невероятные авантюры и ограбления. Единственная драгоценность, которая может оказаться не по зубам беспечным `рыцарям ножа и пистолета`, — красавица Ребекка, дочь главного королевского прокурора…
Страна: Великобритания
Продолжительность: 01:34:19
Перевод: Профессиональный (многоголосый закадровый) Первый канал
Субтитры: отсутствуют
Файл
Качество: HDTVRip
Видео: MPEG4, XviD, 720x400 (16:9), 25.000 fps, 965 Kbps (0.134 bit/pixel)
Аудио: MP3, 48.0 KHz, 2 ch, 128 Kbps, CBR
Релиз от: FAGOT100 (torrnada)

Mediainfo:

Формат : AVI
Формат/Информация : Audio Video Interleave
Размер файла : 744 Мбайт
Продолжительность : 1 ч. 34 м.
Общий поток : 1103 Кбит/сек
Программа кодирования : VirtualDubMod 1.5.10.3 | www.virtualdub-fr.org || (build 2550/release)
Библиотека кодирования : VirtualDubMod build 2550/release
Видео
Идентификатор : 0
Формат : MPEG-4 Visual
Профиль формата : Advanced Simple@L5
Параметр BVOP формата : 1
Параметр QPel формата : Нет
Параметр GMC формата : Без точки перехода
Параметр матрицы формата : Выборочная
Идентификатор кодека : XVID
Идентификатор кодека/Подсказка : XviD
Продолжительность : 1 ч. 34 м.
Битрейт : 965 Кбит/сек
Ширина : 720 пикселей
Высота : 400 пикселей
Соотношение сторон : 16:9
Частота кадров : 25,000 кадров/сек
Цветовое пространство : YUV
Субдискретизация насыщенности : 4:2:0
Битовая глубина : 8 бит
Тип развёртки : Прогрессивная
Метод сжатия : С потерями
Бит/(Пиксели*Кадры) : 0.134
Размер потока : 651 Мбайт (88%)
Библиотека кодирования : XviD 73
Аудио
Идентификатор : 1
Формат : MPEG Audio
Версия формата : Version 1
Профиль формата : Layer 3
Идентификатор кодека : 55
Идентификатор кодека/Подсказка : MP3
Продолжительность : 1 ч. 34 м.
Вид битрейта : Постоянный
Битрейт : 128 Кбит/сек
Каналы : 2 канала
Частота : 48,0 КГц
Метод сжатия : С потерями
Размер потока : 86,4 Мбайт (12%)
Выравнивание : Соединение по промежуткам
Продолжительность промежутка : 40 мс. (1,00 видеокадр)
Время предзагрузки промежутка : 504 мс.
Библиотека кодирования : LAME3.99r
Настройки программы : -m s -V 4 -q 2 -lowpass 17 -b 128
Скриншоты:


Показать сообщения:    

Текущее время: 22-Май 13:44

Часовой пояс: UTC + 3


Вы не можете начинать темы
Вы не можете отвечать на сообщения
Вы не можете редактировать свои сообщения
Вы не можете удалять свои сообщения
Вы не можете голосовать в опросах
Вы не можете прикреплять файлы к сообщениям
Вы не можете скачивать файлы

!ВНИМАНИЕ!
Сайт не предоставляет электронные версии произведений, а занимается лишь коллекционированием и каталогизацией ссылок, присылаемых и публикуемых на форуме нашими читателями. Если вы являетесь правообладателем какого-либо представленного материала и не желаете, чтобы ссылка на него находилась в нашем каталоге, свяжитесь с нами, и мы незамедлительно удалим ее. Файлы для обмена на трекере предоставлены пользователями сайта, и администрация не несет ответственности за их содержание. Просьба не заливать файлы, защищенные авторскими правами, а также файлы нелегального содержания!