۩ ‼ Вы находитесь на Бесплатном торрент-трекере TORRNADA.com ۩ Зарегистрируйтесь для получения полного доступа ко всем функциям сайта ! ۩ После регистрации подпишитесь на нашу рассылку в своём профиле ۩
Auto Web Pinger

 

[Цитировать]

Информация о фильме
Название: Планкетт и Маклейн
Оригинальное название: Plunkett and MaCleane
Год выхода: 1999
Жанр: приключения, драма
Режиссер: Джэйк Скотт / Jake Scott
В ролях: Лив Тайлер, Джонни Ли Миллер, Айэйн Робертсон, Роберт Карлайл, Кен Стотт, Томми Фланаган, Джеймс Торнтон, Теренс Ригби, Кристиан Камарго, Нив МакИнтош, Мэтт Лукас, Дэвид Уоллиямс, Александр Армстронг, Ян Кузелка, Владимир Яворски, Алан Камминг, Майкл Гэмбон, Карел Добры, Николас Фаррелл, Гордон Ловитт, Клер Рашбрук, Тим МакМаллан, Карел Полисенский, Джефф Наттолл, Мартин Серен, Дин Кук, Аннабел Брукс, Тони Модсли, Алекс Палмер, Сьюзан Порретт, Никола МакОлифф, Анна Кивени, Жак Мату, Майкл Калкин, Мюррэй Лэклэн Янг, Дейв Аткинз
О фильме:
Англия, XVIII век. Уилл Планкетт — обыкновенный бездельник-простолюдин, променявший профессию аптекаря на романтику большой дороги. Джеймс Маклейн — бывший аристократ, погрязший в долгах и потому вынужденный круто изменить свою жизнь. Вместе Планкетт и Маклейн — неуловимые и никем не превзойденные разбойники, осуществляющие самые невероятные авантюры и ограбления. Единственная драгоценность, которая может оказаться не по зубам беспечным `рыцарям ножа и пистолета`, — красавица Ребекка, дочь главного королевского прокурора…
Страна: Великобритания
Продолжительность: 01:34:19
Перевод: Профессиональный (многоголосый закадровый)
Субтитры: Русские, английские, украинские
Файл
Качество: HDTVRip-AVC
Видео: AVC, 1024x576 (16:9), 25.000 fps, 1 641 Kbps (0.111 bit/pixel)
Аудио #1: AC-3, 48.0 KHz, 2 ch, 192 Kbps, CBR (Russian) - «Первый канал»
Аудио #2: AC-3, 48.0 KHz, 2 ch, 192 Kbps, CBR (Russian) - лицензия R5 «Лизард»
Аудио #3: AC-3, 48.0 KHz, 2 ch, 192 Kbps, CBR (Russian) - «DVD Group»
Релиз от: FAGOT100 (torrnada)

MI

Формат : Matroska
Версия формата : Version 2
Размер файла : 1,46 Гбайт
Продолжительность : 1 ч. 34 м.
Общий поток : 2219 Кбит/сек
Название фильма : Plunkett & Macleane (1999)
Дата кодирования : UTC 2015-07-15 08:45:03
Программа кодирования : mkvmerge v5.3.0 ('I could have danced') built on Feb 9 2012 10:38:07
Библиотека кодирования : libebml v1.2.3 + libmatroska v1.3.0
Attachment : Yes
Видео
Идентификатор : 1
Формат : AVC
Формат/Информация : Advanced Video Codec
Профиль формата : High@L4.1
Параметр CABAC формата : Да
Параметр ReFrames формата : 9 кадров
Идентификатор кодека : V_MPEG4/ISO/AVC
Продолжительность : 1 ч. 34 м.
Битрейт : 1641 Кбит/сек
Ширина : 1024 пикселя
Высота : 576 пикселей
Соотношение сторон : 16:9
Режим частоты кадров : Постоянный
Частота кадров : 25,000 кадров/сек
Цветовое пространство : YUV
Субдискретизация насыщенности : 4:2:0
Битовая глубина : 8 бит
Тип развёртки : Прогрессивная
Бит/(Пиксели*Кадры) : 0.111
Размер потока : 1,05 Гбайт (72%)
Библиотека кодирования : x264 core 146 r2538 121396c
Настройки программы : cabac=1 / ref=9 / deblock=1:-3:-2 / analyse=0x3:0x133 / me=umh / subme=10 / psy=1 / psy_rd=1.00:0.10 / mixed_ref=1 / me_range=32 / chroma_me=1 / trellis=2 / 8x8dct=1 / cqm=0 / deadzone=21,11 / fast_pskip=0 / chroma_qp_offset=-3 / threads=12 / lookahead_threads=1 / sliced_threads=0 / nr=0 / decimate=0 / interlaced=0 / bluray_compat=0 / constrained_intra=0 / bframes=6 / b_pyramid=2 / b_adapt=2 / b_bias=0 / direct=3 / weightb=1 / open_gop=0 / weightp=2 / keyint=250 / keyint_min=25 / scenecut=40 / intra_refresh=0 / rc=2pass / mbtree=0 / bitrate=1641 / ratetol=1.0 / qcomp=0.60 / qpmin=0 / qpmax=69 / qpstep=4 / cplxblur=20.0 / qblur=0.5 / ip_ratio=1.40 / pb_ratio=1.30 / aq=1:1.00
Язык : English
Default : Да
Forced : Нет
Аудио #1
Идентификатор : 2
Формат : AC-3
Формат/Информация : Audio Coding 3
Расширение режима : CM (complete main)
Параметр Endianness формата : Big
Идентификатор кодека : A_AC3
Продолжительность : 1 ч. 34 м.
Вид битрейта : Постоянный
Битрейт : 192 Кбит/сек
Каналы : 2 канала
Расположение каналов : Front: L R
Частота : 48,0 КГц
Битовая глубина : 16 бит
Метод сжатия : С потерями
Размер потока : 130 Мбайт (9%)
Заголовок : AC3, 2 ch, 192 Kbps, 'Первый канал'
Язык : Russian
Default : Да
Forced : Нет
Аудио #2
Идентификатор : 3
Формат : AC-3
Формат/Информация : Audio Coding 3
Расширение режима : CM (complete main)
Параметр Endianness формата : Big
Идентификатор кодека : A_AC3
Продолжительность : 1 ч. 34 м.
Вид битрейта : Постоянный
Битрейт : 192 Кбит/сек
Каналы : 2 канала
Расположение каналов : Front: L R
Частота : 48,0 КГц
Битовая глубина : 16 бит
Метод сжатия : С потерями
Размер потока : 130 Мбайт (9%)
Заголовок : AC3, 2 ch, 192 Kbps, 'Lizard'
Язык : Russian
Default : Нет
Forced : Нет
Аудио #3
Идентификатор : 4
Формат : AC-3
Формат/Информация : Audio Coding 3
Расширение режима : CM (complete main)
Параметр Endianness формата : Big
Идентификатор кодека : A_AC3
Продолжительность : 1 ч. 34 м.
Вид битрейта : Постоянный
Битрейт : 192 Кбит/сек
Каналы : 2 канала
Расположение каналов : Front: L R
Частота : 48,0 КГц
Битовая глубина : 16 бит
Метод сжатия : С потерями
Размер потока : 130 Мбайт (9%)
Заголовок : AC3, 2 ch, 192 Kbps, 'DVD Group'
Язык : Russian
Default : Нет
Forced : Нет
Текст #1
Идентификатор : 5
Формат : UTF-8
Идентификатор кодека : S_TEXT/UTF8
Идентификатор кодека/Информация : UTF-8 Plain Text
Заголовок : v1
Язык : Russian
Default : Нет
Forced : Нет
Текст #2
Идентификатор : 6
Формат : UTF-8
Идентификатор кодека : S_TEXT/UTF8
Идентификатор кодека/Информация : UTF-8 Plain Text
Заголовок : v2
Язык : Russian
Default : Нет
Forced : Нет
Текст #3
Идентификатор : 7
Формат : UTF-8
Идентификатор кодека : S_TEXT/UTF8
Идентификатор кодека/Информация : UTF-8 Plain Text
Язык : Ukrainian
Default : Нет
Forced : Нет
Текст #4
Идентификатор : 8
Формат : UTF-8
Идентификатор кодека : S_TEXT/UTF8
Идентификатор кодека/Информация : UTF-8 Plain Text
Язык : English
Default : Нет
Forced : Нет
Меню
00:00:00.000 : en:Chapter 01
00:01:38.250 : en:Chapter 02
00:10:14.400 : en:Chapter 03
00:17:33.280 : en:Chapter 04
00:24:25.920 : en:Chapter 05
00:31:49.240 : en:Chapter 06
00:40:56.960 : en:Chapter 07
00:47:16.120 : en:Chapter 08
00:55:59.640 : en:Chapter 09
01:04:42.120 : en:Chapter 10
01:12:29.280 : en:Chapter 11
01:22:21.760 : en:Chapter 12
01:29:35.480 : en:Chapter 13
01:33:19.000 : en:Chapter 14
---[Information] [15.07.2015 11:43:19] x264 [info]: frame I:1292 Avg QP:15.43 size: 50743
---[Information] [15.07.2015 11:43:19] x264 [info]: frame P:38782 Avg QP:18.78 size: 16453
---[Information] [15.07.2015 11:43:19] x264 [info]: frame B:101405 Avg QP:21.05 size: 4507

Скриншоты



Показать сообщения:    

Текущее время: 22-Май 13:44

Часовой пояс: UTC + 3


Вы не можете начинать темы
Вы не можете отвечать на сообщения
Вы не можете редактировать свои сообщения
Вы не можете удалять свои сообщения
Вы не можете голосовать в опросах
Вы не можете прикреплять файлы к сообщениям
Вы не можете скачивать файлы

!ВНИМАНИЕ!
Сайт не предоставляет электронные версии произведений, а занимается лишь коллекционированием и каталогизацией ссылок, присылаемых и публикуемых на форуме нашими читателями. Если вы являетесь правообладателем какого-либо представленного материала и не желаете, чтобы ссылка на него находилась в нашем каталоге, свяжитесь с нами, и мы незамедлительно удалим ее. Файлы для обмена на трекере предоставлены пользователями сайта, и администрация не несет ответственности за их содержание. Просьба не заливать файлы, защищенные авторскими правами, а также файлы нелегального содержания!