۩ ‼ Вы находитесь на Бесплатном торрент-трекере TORRNADA.com ۩ Зарегистрируйтесь для получения полного доступа ко всем функциям сайта ! ۩ После регистрации подпишитесь на нашу рассылку в своём профиле ۩
Auto Web Pinger

 

[Цитировать]

Чао, Федерико! (2014) WEB-DLRip (серии 1-4 из 4)- Производство: "Ан-фильм", Россия
Жанр: комедия
Режиссер: Елена Новикова
Актеры: Сергей Баталов, Ольга Машная, Галина Сазонова, Виктор Добронравов, Андрей Бурковский, Виктор Логинов, Андрей Заводюк, Антонио Виллани
Описание:
Ворчливый пенсионер Василий Иванов и его жена Галина получают от детей на годовщину свадьбы подарок — путешествие в Италию. Вася уже как год на пенсии, и безделье его очень сильно тяготит, кроме того, у него проблемы с сердцем, так что жена запрещает ему напрягаться, от чего он ворчит еще больше. Тур Ивановы выбирают максимально бюджетный, чтобы не доставлять хлопот детям, и отправляются в путешествие. В аэропорту Вася и Галина знакомятся со своими сверстниками Валерием и Алиной, которые тоже летят в Италию. Но стоит женщинам отвернуться, как заядлый рыбак Вася и ученый-ихтиолог Валера вдрызг ссорятся! Так что начало путешествия у Ивановых не задается.
В это время в Москве их «непутевый» зять Игорь расследует дело о мошенничестве. Он возлагает на него большие надежды, думает, что за раскрытие его повысят, и он докажет своей семье (и в первую очередь тестю), что чего-то стоит!..

Дата российской премьеры: 05.09.2014
Продолжительность: ~ 00:45:00 серия
Качество видео: WEB-DLRip
Видео: XVID, 720x400 (16:9), ~1800 Kbps
Аудио: AC3, 2 ch, 192 Kbps

MediaInfo:

Общее
Полное имя                               : E:\DOWNLOADS\Чао, Федерико! (2014) WEB-DLRip\Чао, Федерико! - 01 серия.avi
Формат                                   : AVI
Формат/Информация                        : Audio Video Interleave
Размер файла                             : 633 Мбайт
Продолжительность                        : 44 м.
Общий поток                              : 2001 Кбит/сек
Программа кодирования                    : VirtualDubMod 1.5.10.3 | www.virtualdub-fr.org || (build 2550/release)
Библиотека кодирования                   : VirtualDubMod build 2550/release
Видео
Идентификатор                            : 0
Формат                                   : MPEG-4 Visual
Профиль формата                          : Advanced Simple@L5
Параметр BVOP формата                    : 1
Параметр QPel формата                    : Нет
Параметр GMC формата                     : Без точки перехода
Параметр матрицы формата                 : Default (MPEG)
Идентификатор кодека                     : XVID
Идентификатор кодека/Подсказка           : XviD
Продолжительность                        : 44 м.
Битрейт                                  : 1799 Кбит/сек
Ширина                                   : 720 пикселей
Высота                                   : 400 пикселей
Соотношение сторон                       : 16:9
Частота кадров                           : 25,000 кадров/сек
Цветовое пространство                    : YUV
Субдискретизация насыщенности            : 4:2:0
Битовая глубина                          : 8 бит
Тип развёртки                            : Прогрессивная
Метод сжатия                             : С потерями
Бит/(Пиксели*Кадры)                      : 0.250
Размер потока                            : 569 Мбайт (90%)
Библиотека кодирования                   : XviD 73
Аудио
Идентификатор                            : 1
Формат                                   : AC-3
Формат/Информация                        : Audio Coding 3
Расширение режима                        : CM (complete main)
Параметр Endianness формата              : Big
Идентификатор кодека                     : 2000
Продолжительность                        : 44 м.
Вид битрейта                             : Постоянный
Битрейт                                  : 192 Кбит/сек
Каналы                                   : 2 канала
Расположение каналов                     : Front: L R
Частота                                  : 44,1 КГц
Битовая глубина                          : 16 бит
Метод сжатия                             : С потерями
Размер потока                            : 60,7 Мбайт (10%)
Выравнивание                             : Разделение по промежуткам
Продолжительность промежутка             : 40  мс. (1,00 видеокадр)
Время предзагрузки промежутка            : 500  мс.
Скриншоты:

[Цитировать]

Спасибо за фильмец для отдыха. ag


Показать сообщения:    

Текущее время: 21-Май 09:35

Часовой пояс: UTC + 3


Вы не можете начинать темы
Вы не можете отвечать на сообщения
Вы не можете редактировать свои сообщения
Вы не можете удалять свои сообщения
Вы не можете голосовать в опросах
Вы не можете прикреплять файлы к сообщениям
Вы не можете скачивать файлы

!ВНИМАНИЕ!
Сайт не предоставляет электронные версии произведений, а занимается лишь коллекционированием и каталогизацией ссылок, присылаемых и публикуемых на форуме нашими читателями. Если вы являетесь правообладателем какого-либо представленного материала и не желаете, чтобы ссылка на него находилась в нашем каталоге, свяжитесь с нами, и мы незамедлительно удалим ее. Файлы для обмена на трекере предоставлены пользователями сайта, и администрация не несет ответственности за их содержание. Просьба не заливать файлы, защищенные авторскими правами, а также файлы нелегального содержания!