۩ ‼ Вы находитесь на Бесплатном торрент-трекере TORRNADA.com ۩ Зарегистрируйтесь для получения полного доступа ко всем функциям сайта ! ۩ После регистрации подпишитесь на нашу рассылку в своём профиле ۩
Auto Web Pinger

 

[Цитировать]

Информация о фильме
Название: Очарованный странник
Год выхода: 1990
Жанр: Драма, экранизация
Режиссер: Ирина Поплавская
В ролях: Александр Михайлов, Василий Кривун, Андрей Ростоцкий, Лидия Вележева, Ольга Остроумова, Валерий Носик, Майя Булгакова, Ирина Скобцева, Елизавета Никищихина, Спартак Мишулин, Леонид Куравлёв, Леонид Кулагин, Юрий Катин-Ярцев, Татьяна Панкова, Борис Клюев, Александр Головков, Виктор Крючков, Пётр Кононыхин, Борис Кащеев, Александр Кузьмичев, Белаш Вишневский, Максим Глотов, Александр Сажин, Алексей Коняшин, Алиман Джангорозова, Асанбек Умуралиев, Болот Бейшеналиев, Дюйшен Байтобетов
О фильме: По мотивам одноименной повести Николая Лескова. Между пассажирами парохода возникает спор о том, есть ли на Руси праведники? Никто не хочет рассказывать о своей жизни. И только один священник решается поведать свою историю. Хотя и предупреждает, что он - "большой грешник". Бежав от барина, пытался покончить жизнь самоубийством, десять лет жил в плену у татар, снова бежал, страдал от несчастной любви к цыганке, ради которой ему приходилось воровать и даже убивать...
Страна: СССР, Мосфильм
Продолжительность: 2 x ~ 01:01:23
Перевод: не требуется
Файл
Кодек: MKV
Качество: SATRip-AVC
Видео: MPEG-4 AVC, 2500 Кбит/с, 712x570@760x570, 700x570@746x570
Звук: AC3, 2 ch, 192 Кбит/с

Скриншоты

Медиа-Инфо

raw [info]: 700x570p 16:15 @ 25/1 fps (cfr)
x264 [info]: using SAR=16/15
x264 [info]: using cpu capabilities: MMX2 SSE2Fast SSSE3 SSE4.2 AVX
x264 [info]: profile High, level 4.1
x264 [info]: frame I:560 Avg QP:16.57 size: 59528
x264 [info]: frame P:23195 Avg QP:19.35 size: 25518
x264 [info]: frame B:70944 Avg QP:21.03 size: 7871
=========================================================================================================
Общее
Уникальный идентификатор : 170660149342878866558554021139398666730 (0x8063F2FE5519B969804F5257CF2229EA)
Полное имя : R:МОИ РИПЫОчарованный странник_1990-SATRip-AVCСтранник-2.mkv
Формат : Matroska
Версия формата : Version 2
Размер файла : 1,19 Гбайт
Продолжительность : 1 ч. 3 м.
Общий поток : 2693 Кбит/сек
Дата кодирования : UTC 2015-07-07 14:14:53
Программа кодирования : mkvmerge v5.8.0 ('No Sleep / Pillow') built on Sep 2 2012 15:37:04
Библиотека кодирования : libebml v1.2.3 + libmatroska v1.3.0
Видео
Идентификатор : 1
Формат : AVC
Формат/Информация : Advanced Video Codec
Профиль формата : High@L4.1
Параметр CABAC формата : Да
Параметр ReFrames формата : 15 кадров
Идентификатор кодека : V_MPEG4/ISO/AVC
Продолжительность : 1 ч. 3 м.
Битрейт : 2500 Кбит/сек
Ширина : 700 пикселей
Высота : 570 пикселей
Соотношение сторон : 4:3
Соотношение сторон в оригинале : 4:3
Режим частоты кадров : Постоянный
Частота кадров : 25,000 кадров/сек
Цветовое пространство : YUV
Субдискретизация насыщенности : 4:2:0
Битовая глубина : 8 бит
Тип развёртки : Прогрессивная
Бит/(Пиксели*Кадры) : 0.251
Размер потока : 1,08 Гбайт (91%)
Библиотека кодирования : x264 core 146 r2538 121396c
Настройки программы : cabac=1 / ref=15 / deblock=1:-2:-2 / analyse=0x3:0x133 / me=umh / subme=10 / psy=1 / psy_rd=1.05:0.15 / mixed_ref=1 / me_range=32 / chroma_me=1 / trellis=2 / 8x8dct=1 / cqm=0 / deadzone=21,11 / fast_pskip=0 / chroma_qp_offset=-3 / threads=12 / lookahead_threads=2 / sliced_threads=0 / nr=0 / decimate=0 / interlaced=0 / bluray_compat=0 / constrained_intra=0 / bframes=8 / b_pyramid=2 / b_adapt=2 / b_bias=0 / direct=3 / weightb=1 / open_gop=0 / weightp=2 / keyint=250 / keyint_min=25 / scenecut=40 / intra_refresh=0 / rc=2pass / mbtree=0 / bitrate=2500 / ratetol=1.0 / qcomp=0.65 / qpmin=0 / qpmax=69 / qpstep=4 / cplxblur=20.0 / qblur=0.5 / ip_ratio=1.40 / pb_ratio=1.30 / aq=1:1.00
Язык : English
Default : Да
Forced : Нет
Основные цвета : BT.601 PAL
Характеристики трансфера : BT.470 System B, BT.470 System G
Коэффициенты матрицы : BT.601
Аудио
Идентификатор : 2
Формат : AC-3
Формат/Информация : Audio Coding 3
Расширение режима : CM (complete main)
Параметр Endianness формата : Big
Идентификатор кодека : A_AC3
Продолжительность : 1 ч. 3 м.
Вид битрейта : Постоянный
Битрейт : 192 Кбит/сек
Каналы : 2 канала
Расположение каналов : Front: L R
Частота : 48,0 КГц
Битовая глубина : 16 бит
Метод сжатия : С потерями
Размер потока : 86,7 Мбайт (7%)
Язык : Russian
Default : Да
Forced : Нет
В отличии от ДВД, продолжительность больше на 20 минут!


Показать сообщения:    

Текущее время: 21-Май 09:56

Часовой пояс: UTC + 3


Вы не можете начинать темы
Вы не можете отвечать на сообщения
Вы не можете редактировать свои сообщения
Вы не можете удалять свои сообщения
Вы не можете голосовать в опросах
Вы не можете прикреплять файлы к сообщениям
Вы не можете скачивать файлы

!ВНИМАНИЕ!
Сайт не предоставляет электронные версии произведений, а занимается лишь коллекционированием и каталогизацией ссылок, присылаемых и публикуемых на форуме нашими читателями. Если вы являетесь правообладателем какого-либо представленного материала и не желаете, чтобы ссылка на него находилась в нашем каталоге, свяжитесь с нами, и мы незамедлительно удалим ее. Файлы для обмена на трекере предоставлены пользователями сайта, и администрация не несет ответственности за их содержание. Просьба не заливать файлы, защищенные авторскими правами, а также файлы нелегального содержания!