۩ ‼ Вы находитесь на Бесплатном торрент-трекере TORRNADA.com ۩ Зарегистрируйтесь для получения полного доступа ко всем функциям сайта ! ۩ После регистрации подпишитесь на нашу рассылку в своём профиле ۩
Auto Web Pinger

 

[Цитировать]

Гнездо землеройки / Musaranas (2014) DVDRip - Производство: Испания, Франция
Жанр: Триллер, Ужасы, Драма
Режиссер: Хуан Фернандо Андрес, Эстебан Роэль
Актеры: Уго Сильва, Макарена Гомес, Надя Де Сантьяго, Луис Тосар, Грасия Олайо, Лусия Гонсалес, Каролина Банг, Томас дел Эстал, Хесус Анхель Кастродеса, Асьер Эчеандиа
Описание:
Испания, 1950-е. Агорафобия Монтсе не дает ей покинуть квартиру в Мадриде, и ее
единственной связью с реальностью является младшая сестра, на воспитание
которой она потратила всю свою молодость. Но в один прекрасный день к
ним заходит молодой сосед Карлос…

Продолжительность: 01:27:43
Качество видео: DVDRip
Перевод: Одноголосый закадровый, любительский
Озвучка: Хихикающий доктор
Видео: Xvid, 704х272, ~1799 Кбит/с
Аудио: MP3, 2 ch, 192 Кбит/с, CBR
Семпл: Скачать

Mediainfo:

Общее
Полное имя                               : D:\FILMЬl\JR\Gnezdo.Zemleroiiki.avi
Формат                                   : AVI
Формат/Информация                        : Audio Video Interleave
Размер файла                             : 1,23 Гбайт
Продолжительность                        : 1 ч. 27 м.
Общий поток                              : 2000 Кбит/сек
Программа кодирования                    : VirtualDubMod 1.5.10.3 (build 2550/release)
Библиотека кодирования                   : VirtualDubMod build 2550/release
Видео
Идентификатор                            : 0
Формат                                   : MPEG-4 Visual
Профиль формата                          : Advanced Simple@L5
Параметр BVOP формата                    : 1
Параметр QPel формата                    : Нет
Параметр GMC формата                     : Без точки перехода
Параметр матрицы формата                 : Default (MPEG)
Идентификатор кодека                     : XVID
Идентификатор кодека/Подсказка           : XviD
Продолжительность                        : 1 ч. 27 м.
Битрейт                                  : 1799 Кбит/сек
Ширина                                   : 704 пикселя
Высота                                   : 272 пикселя
Соотношение сторон                       : 2,588
Частота кадров                           : 25,000 кадров/сек
Цветовое пространство                    : YUV
Субдискретизация насыщенности            : 4:2:0
Битовая глубина                          : 8 бит
Тип развёртки                            : Прогрессивная
Метод сжатия                             : С потерями
Бит/(Пиксели*Кадры)                      : 0.376
Размер потока                            : 1,10 Гбайт (90%)
Библиотека кодирования                   : XviD 1.2.0.dev47 (UTC 2006-11-01)
Аудио
Идентификатор                            : 1
Формат                                   : MPEG Audio
Версия формата                           : Version 1
Профиль формата                          : Layer 3
Идентификатор кодека                     : 55
Идентификатор кодека/Подсказка           : MP3
Продолжительность                        : 1 ч. 27 м.
Вид битрейта                             : Постоянный
Битрейт                                  : 192 Кбит/сек
Каналы                                   : 2 канала
Частота                                  : 44,1 КГц
Метод сжатия                             : С потерями
Размер потока                            : 120 Мбайт (10%)
Выравнивание                             : Разделение по промежуткам
Продолжительность промежутка             : 40  мс. (1,00 видеокадр)
Время предзагрузки промежутка            : 500  мс.
Скриншоты:
Время раздачи: С 09:00 до 23:30 до 5 скачавших


Показать сообщения:    

Текущее время: 20-Май 18:17

Часовой пояс: UTC + 3


Вы не можете начинать темы
Вы не можете отвечать на сообщения
Вы не можете редактировать свои сообщения
Вы не можете удалять свои сообщения
Вы не можете голосовать в опросах
Вы не можете прикреплять файлы к сообщениям
Вы не можете скачивать файлы

!ВНИМАНИЕ!
Сайт не предоставляет электронные версии произведений, а занимается лишь коллекционированием и каталогизацией ссылок, присылаемых и публикуемых на форуме нашими читателями. Если вы являетесь правообладателем какого-либо представленного материала и не желаете, чтобы ссылка на него находилась в нашем каталоге, свяжитесь с нами, и мы незамедлительно удалим ее. Файлы для обмена на трекере предоставлены пользователями сайта, и администрация не несет ответственности за их содержание. Просьба не заливать файлы, защищенные авторскими правами, а также файлы нелегального содержания!