۩ ‼ Вы находитесь на Бесплатном торрент-трекере TORRNADA.com ۩ Зарегистрируйтесь для получения полного доступа ко всем функциям сайта ! ۩ После регистрации подпишитесь на нашу рассылку в своём профиле ۩
Auto Web Pinger

 

[Цитировать]

Гид для замужней женщины / A Guide for the Married Woman (1978) HDTV [H.264/1080i]- Производство: США, 20th Century Fox Television
Жанр: Мелодрама, Комедия
Режиссер: Хи Эвербэк
Актеры: Сибилл Шепард, Чарльз Фрэнк, Джон Хиллерман, Илэйн Джойс, Ричард Келтон, Питер Маршалл, Ив Арден, Джон Берадино, Джон Байнер, Мэри Кросби
Сценарий: Фрэнк Тарлофф, Джевел Джаффе, Джерри Рейнбоу
Оператор: Рик Уэйт
Композиторы: Джек Эллиотт, Эллин Фергюсон
Описание:
Полусерьёзный-полушутливый взгляд на жизнь Джулии Уокер (Сибилл Шепард). Заскучав в браке, она с подачи друзей замышляет интрижку. Такое переплетение иллюзий и реальности порождает проблемы.

Продолжительность: 01.31.48
Качество видео: HDTV [1080i]
Перевод: Многоголосый закадровый
Автор перевода: Первый канал
Видео: AVC/H.264, 1920х1080, ~5573 kbps
Аудио 1: MPEG Layer 2, 2 ch, 48 kHz, 224 kbps (MVO)
Аудио 2: АС-3, 6 ch, 48 kHz, 384 kbps (MVO)
Семпл: Скачать

Mediainfo:

Общее
Идентификатор                            : 16 (0x10)
Полное имя                               : A Guide for the Married Woman_HD.ts
Формат                                   : MPEG-TS
Размер файла                             : 4,17 Гбайт
Продолжительность                        : 1 ч. 31 м.
Режим общего битрейта                    : Переменный
Общий поток                              : 6509 Кбит/сек
Видео
Идентификатор                            : 1902 (0x76E)
Идентификатор меню                       : 92 (0x5C)
Формат                                   : AVC
Формат/Информация                        : Advanced Video Codec
Профиль формата                          : High@L4.0
Параметр CABAC формата                   : Да
Параметр ReFrames формата                : 3 кадра
Идентификатор кодека                     : 27
Продолжительность                        : 1 ч. 31 м.
Битрейт                                  : 5573 Кбит/сек
Ширина                                   : 1920 пикселей
Высота                                   : 1080 пикселей
Соотношение сторон                       : 16:9
Частота кадров                           : 25,000 кадров/сек
Стандарт вещания                         : PAL
Цветовое пространство                    : YUV
Субдискретизация насыщенности            : 4:2:0
Битовая глубина                          : 8 бит
Тип развёртки                            : Чересстрочная
Порядок развёртки                        : Верхнее поле первое
Бит/(Пиксели*Кадры)                      : 0.108
Размер потока                            : 3,58 Гбайт (86%)
Основные цвета                           : BT.709
Характеристики трансфера                 : BT.709
Коэффициенты матрицы                     : BT.709
Аудио #1
Идентификатор                            : 2902 (0xB56)
Идентификатор меню                       : 92 (0x5C)
Формат                                   : MPEG Audio
Версия формата                           : Version 1
Профиль формата                          : Layer 2
Идентификатор кодека                     : 4
Продолжительность                        : 1 ч. 31 м.
Вид битрейта                             : Постоянный
Битрейт                                  : 224 Кбит/сек
Каналы                                   : 2 канала
Частота                                  : 48,0 КГц
Метод сжатия                             : С потерями
Задержка видео                           : 96 мс.
Размер потока                            : 147 Мбайт (3%)
Язык                                     : std
Язык, дополнительно                      : Clean effects
Аудио #2
Идентификатор                            : 3902 (0xF3E)
Идентификатор меню                       : 92 (0x5C)
Формат                                   : AC-3
Формат/Информация                        : Audio Coding 3
Расширение режима                        : CM (complete main)
Параметр Endianness формата              : Big
Идентификатор кодека                     : 6
Продолжительность                        : 1 ч. 31 м.
Вид битрейта                             : Постоянный
Битрейт                                  : 384 Кбит/сек
Каналы                                   : 6 каналов
Расположение каналов                     : Front: L C R, Side: L R, LFE
Частота                                  : 48,0 КГц
Битовая глубина                          : 16 бит
Метод сжатия                             : С потерями
Задержка видео                           : 99 мс.
Размер потока                            : 252 Мбайт (6%)
Язык                                     : std
Язык, дополнительно                      : Clean effects
Текст
Идентификатор                            : 33 (0x21)-100
Идентификатор меню                       : 92 (0x5C)
Формат                                   : Teletext
Меню
Идентификатор                            : 902 (0x386)
Идентификатор меню                       : 92 (0x5C)
Продолжительность                        : 1 ч. 31 м.
Список                                   : 1902 (0x76E) (AVC) / 2902 (0xB56) (MPEG Audio, std) / 3902 (0xF3E) (AC-3, std) / 33 (0x21) ()
Язык                                     :  / std / std
Скриншоты:
Не жилим спасибо. Не забываем голосовать за трекер!!!


Показать сообщения:    

Текущее время: 22-Май 22:44

Часовой пояс: UTC + 3


Вы не можете начинать темы
Вы не можете отвечать на сообщения
Вы не можете редактировать свои сообщения
Вы не можете удалять свои сообщения
Вы не можете голосовать в опросах
Вы не можете прикреплять файлы к сообщениям
Вы не можете скачивать файлы

!ВНИМАНИЕ!
Сайт не предоставляет электронные версии произведений, а занимается лишь коллекционированием и каталогизацией ссылок, присылаемых и публикуемых на форуме нашими читателями. Если вы являетесь правообладателем какого-либо представленного материала и не желаете, чтобы ссылка на него находилась в нашем каталоге, свяжитесь с нами, и мы незамедлительно удалим ее. Файлы для обмена на трекере предоставлены пользователями сайта, и администрация не несет ответственности за их содержание. Просьба не заливать файлы, защищенные авторскими правами, а также файлы нелегального содержания!