۩ ‼ Вы находитесь на Бесплатном торрент-трекере TORRNADA.com ۩ Зарегистрируйтесь для получения полного доступа ко всем функциям сайта ! ۩ После регистрации подпишитесь на нашу рассылку в своём профиле ۩
Auto Web Pinger

 

[Цитировать]

Ронин / Ronin (1998) BDRip [H.264/1080p]«Anyone is an enemy for a price»- Производство: Великобритания, Франция, США / FGM Entertainment, United Artists Corporation, United Artists
Жанр: боевик, триллер, криминал, приключения
Режиссер: Джон Франкенхаймер
Продюсер: Фрэнк Манкузо мл., Пол Келменсон, Этель Уинант
Актеры: Роберт Де Ниро, Жан Рено, Наташа МакЭлхоун, Стеллан Скарсгаард, Шон Бин, Скипп Саддат, Мишель Лонсдейл, Ян Тржиска, Рон Перкинс, Фёдор Аткин
Описание:
У того, кто не смог уберечь своего хозяина от гибели, есть только один путь — стать наемником. Четверо бывших агентов спецслужб получают задание: они должны завладеть тщательно охраняемым кейсом с секретным содержимым. Но среди них есть предатель, разыгрывающий свою карту. Двум ронинам, чтобы выполнить заказ, придется вступить в смертельную схватку со всеми, кто охотится за этим таинственным кейсом, уже успевшим унести в могилу множество жизней…

Рейтинг MPAA: R - Детям до 17 лет обязательно присутствие родителей
Релиз группа: HDClub
Продолжительность: 02:01:34
Качество: BDRip (1080p) (SbR)
Перевод: профессиональный (многоголосый закадровый), авторский (одноголосый закадровый)
Язык субтитров: русский, английский
Вид субтитров: вшитые, отключаемые
Видео: MPEG-4 AVC/H.264, 1920x812 (2,35:1), 12 000 kbps, 23.976 fps, 0.321 b/px
Аудио # 1: АС3, 2 ch, 192 kbps, 48 000 Hz - MVO - «Варус Видео»
Аудио # 2: DTS, 6 ch, 755 kbps, 48 000 Hz - MVO - «С.Р.И.»
Аудио # 3: DTS, 6 ch, 755 kbps, 48 000 Hz - MVO - «Домашнее видео»
Аудио # 4: АС3, 2 ch, 192 kbps, 48 000 Hz - MVO - «НТВ»
Аудио # 5: АС3, 2 ch, 192 kbps, 48 000 Hz - MVO - «Лазер видео»
Аудио # 6: АС3, 2 ch, 224 kbps, 48 000 Hz - DVO - «Союз Видео»
Аудио # 7: АС3, 2 ch, 224 kbps, 48 000 Hz - AVO - А.Кашкин (Первомайский)
Аудио # 8: АС3, 6 ch, 384 kbps, 48 000 Hz - AVO - А.Гаврилов
Аудио # 9: DTS, 6 ch, 1509 kbps, 48 000 Hz - AVO - Ю.Живов
Аудио # 10: DTS, 6 ch, 1509 kbps, 48 000 Hz - Original - English

MediaInfo

Общее
Уникальный идентификатор                 : 254559190249184266189887165367010097590 (0xBF825114096AF36EBB3B810A34BE79B6)
Полное имя                               : F:\[1998] Ронин [BDRip] [1080p].mkv
Формат                                   : Matroska
Версия формата                           : Version 4 / Version 2
Размер файла                             : 15,2 Гбайт
Продолжительность                        : 2 ч. 1 м.
Общий поток                              : 17,9 Мбит/сек
Название фильма                          : Ронин / Ronin (1998) BDRip [1080p]
Дата кодирования                         : UTC 2015-07-13 11:14:35
Программа кодирования                    : mkvmerge v7.8.0 ('River Man') 32bit built on Mar 27 2015 16:18:02
Библиотека кодирования                   : libebml v1.3.1 + libmatroska v1.4.2
DURATION                                 : 01:51:40.660000000
NUMBER_OF_FRAMES                         : 890
NUMBER_OF_BYTES                          : 30707
_STATISTICS_WRITING_APP                  : mkvmerge v7.8.0 ('River Man') 32bit built on Mar 27 2015 16:18:02
_STATISTICS_WRITING_DATE_UTC             : 2015-07-13 11:14:35
_STATISTICS_TAGS                         : BPS DURATION NUMBER_OF_FRAMES NUMBER_OF_BYTES
Видео
Идентификатор                            : 1
Формат                                   : AVC
Формат/Информация                        : Advanced Video Codec
Профиль формата                          : High@L4.1
Параметр CABAC формата                   : Да
Параметр ReFrames формата                : 5 кадров
Идентификатор кодека                     : V_MPEG4/ISO/AVC
Продолжительность                        : 2 ч. 1 м.
Битрейт                                  : 12,0 Мбит/сек
Ширина                                   : 1920 пикселей
Высота                                   : 812 пикселей
Соотношение сторон                       : 2,35:1
Режим частоты кадров                     : Постоянный
Частота кадров                           : 23,976 кадра/сек
Цветовое пространство                    : YUV
Субдискретизация насыщенности            : 4:2:0
Битовая глубина                          : 8 бит
Тип развёртки                            : Прогрессивная
Бит/(Пиксели*Кадры)                      : 0.321
Размер потока                            : 9,88 Гбайт (65%)
Заголовок                                : [1998] Ронин / Ronin [BDRip] [1080p]
Библиотека кодирования                   : x264 core 142 r2431+42 c69a006 tMod [8-bit@4:2:0 X86_64]
Настройки программы                      : cabac=1 / ref=5 / deblock=1:-2:-2 / analyse=0x3:0x133 / me=umh / subme=11 / psy=1 / fade_compensate=0.00 / psy_rd=1.00:0.00 / mixed_ref=1 / me_range=32 / chroma_me=1 / trellis=2 / 8x8dct=1 / cqm=0 / deadzone=21,11 / fast_pskip=0 / chroma_qp_offset=-2 / threads=12 / lookahead_threads=3 / sliced_threads=0 / nr=0 / decimate=1 / interlaced=0 / bluray_compat=0 / constrained_intra=0 / fgo=0 / bframes=10 / b_pyramid=2 / b_adapt=2 / b_bias=0 / direct=3 / weightb=1 / open_gop=0 / weightp=2 / keyint=250 / keyint_min=23 / scenecut=40 / intra_refresh=0 / rc_lookahead=120 / rc=2pass / mbtree=1 / bitrate=12000 / ratetol=1.0 / qcomp=0.70 / qpmin=0:0:0 / qpmax=69:69:69 / qpstep=4 / cplxblur=20.0 / qblur=0.5 / vbv_maxrate=62500 / vbv_bufsize=78125 / nal_hrd=none / filler=0 / ip_ratio=1.40 / aq=4:0.70 / aq-sensitivity=11.00 / aq-factor=1.00:1.00:1.00 / aq2=1:0.60 / aq2-sensitivity=9.00 / aq2-factor=1.00:1.00:1.00 / aq3=1:[0.60:0.60]:[0.60:0.60]:[0.60:0.60]:[0.60:0.60] / aq3-sensitivity=10.00 / aq3-factor=[1.00:1.00]:[1.00:1.00]:[1.00:1.00] / aq3-boundary=192:64:24
Язык                                     : English
Default                                  : Да
Forced                                   : Нет
Цветовой диапазон                        : Limited
Основные цвета                           : BT.709
Характеристики трансфера                 : BT.709
Коэффициенты матрицы                     : BT.709
Аудио #1
Идентификатор                            : 2
Формат                                   : AC-3
Формат/Информация                        : Audio Coding 3
Расширение режима                        : CM (complete main)
Параметр Endianness формата              : Big
Идентификатор кодека                     : A_AC3
Продолжительность                        : 2 ч. 1 м.
Вид битрейта                             : Постоянный
Битрейт                                  : 192 Кбит/сек
Каналы                                   : 2 канала
Расположение каналов                     : Front: L R
Частота                                  : 48,0 КГц
Метод сжатия                             : С потерями
Размер потока                            : 167 Мбайт (1%)
Заголовок                                : MVO - «Варус Видео»
Язык                                     : Russian
Default                                  : Да
Forced                                   : Нет
Аудио #2
Идентификатор                            : 3
Формат                                   : DTS
Формат/Информация                        : Digital Theater Systems
Режим                                    : 16
Параметр Endianness формата              : Big
Идентификатор кодека                     : A_DTS
Продолжительность                        : 2 ч. 1 м.
Вид битрейта                             : Постоянный
Битрейт                                  : 755 Кбит/сек
Каналы                                   : 6 каналов
Расположение каналов                     : Front: L C R, Side: L R, LFE
Частота                                  : 48,0 КГц
Битовая глубина                          : 24 бит
Метод сжатия                             : С потерями
Размер потока                            : 656 Мбайт (4%)
Заголовок                                : MVO - «С.Р.И.»
Язык                                     : Russian
Default                                  : Нет
Forced                                   : Нет
Аудио #3
Идентификатор                            : 4
Формат                                   : DTS
Формат/Информация                        : Digital Theater Systems
Режим                                    : 16
Параметр Endianness формата              : Big
Идентификатор кодека                     : A_DTS
Продолжительность                        : 2 ч. 1 м.
Вид битрейта                             : Постоянный
Битрейт                                  : 755 Кбит/сек
Каналы                                   : 6 каналов
Расположение каналов                     : Front: L C R, Side: L R, LFE
Частота                                  : 48,0 КГц
Битовая глубина                          : 24 бит
Метод сжатия                             : С потерями
Размер потока                            : 656 Мбайт (4%)
Заголовок                                : MVO - «Домашнее видео»
Язык                                     : Russian
Default                                  : Нет
Forced                                   : Нет
Аудио #4
Идентификатор                            : 5
Формат                                   : AC-3
Формат/Информация                        : Audio Coding 3
Расширение режима                        : CM (complete main)
Параметр Endianness формата              : Big
Идентификатор кодека                     : A_AC3
Продолжительность                        : 2 ч. 1 м.
Вид битрейта                             : Постоянный
Битрейт                                  : 192 Кбит/сек
Каналы                                   : 2 канала
Расположение каналов                     : Front: L R
Частота                                  : 48,0 КГц
Метод сжатия                             : С потерями
Размер потока                            : 167 Мбайт (1%)
Заголовок                                : MVO - «НТВ»
Язык                                     : Russian
Default                                  : Нет
Forced                                   : Нет
Аудио #5
Идентификатор                            : 6
Формат                                   : AC-3
Формат/Информация                        : Audio Coding 3
Расширение режима                        : CM (complete main)
Параметр Endianness формата              : Big
Идентификатор кодека                     : A_AC3
Продолжительность                        : 2 ч. 1 м.
Вид битрейта                             : Постоянный
Битрейт                                  : 192 Кбит/сек
Каналы                                   : 2 канала
Расположение каналов                     : Front: L R
Частота                                  : 48,0 КГц
Метод сжатия                             : С потерями
Размер потока                            : 167 Мбайт (1%)
Заголовок                                : MVO - «Лазер видео»
Язык                                     : Russian
Default                                  : Нет
Forced                                   : Нет
Аудио #6
Идентификатор                            : 7
Формат                                   : AC-3
Формат/Информация                        : Audio Coding 3
Расширение режима                        : CM (complete main)
Параметр Endianness формата              : Big
Идентификатор кодека                     : A_AC3
Продолжительность                        : 2 ч. 1 м.
Вид битрейта                             : Постоянный
Битрейт                                  : 224 Кбит/сек
Каналы                                   : 2 канала
Расположение каналов                     : Front: L R
Частота                                  : 48,0 КГц
Метод сжатия                             : С потерями
Размер потока                            : 195 Мбайт (1%)
Заголовок                                : DVO - «Союз Видео»
Язык                                     : Russian
Default                                  : Нет
Forced                                   : Нет
Аудио #7
Идентификатор                            : 8
Формат                                   : AC-3
Формат/Информация                        : Audio Coding 3
Расширение режима                        : CM (complete main)
Параметр Endianness формата              : Big
Идентификатор кодека                     : A_AC3
Продолжительность                        : 2 ч. 1 м.
Вид битрейта                             : Постоянный
Битрейт                                  : 224 Кбит/сек
Каналы                                   : 2 канала
Расположение каналов                     : Front: L R
Частота                                  : 48,0 КГц
Метод сжатия                             : С потерями
Размер потока                            : 195 Мбайт (1%)
Заголовок                                : AVO - А.Кашкин
Язык                                     : Russian
Default                                  : Нет
Forced                                   : Нет
Аудио #8
Идентификатор                            : 9
Формат                                   : AC-3
Формат/Информация                        : Audio Coding 3
Расширение режима                        : CM (complete main)
Параметр Endianness формата              : Big
Идентификатор кодека                     : A_AC3
Продолжительность                        : 2 ч. 1 м.
Вид битрейта                             : Постоянный
Битрейт                                  : 384 Кбит/сек
Каналы                                   : 6 каналов
Расположение каналов                     : Front: L C R, Side: L R, LFE
Частота                                  : 48,0 КГц
Метод сжатия                             : С потерями
Размер потока                            : 334 Мбайт (2%)
Заголовок                                : AVO - А.Гаврилов
Язык                                     : Russian
Default                                  : Нет
Forced                                   : Нет
Аудио #9
Идентификатор                            : 10
Формат                                   : DTS
Формат/Информация                        : Digital Theater Systems
Режим                                    : 16
Параметр Endianness формата              : Big
Идентификатор кодека                     : A_DTS
Продолжительность                        : 2 ч. 1 м.
Вид битрейта                             : Постоянный
Битрейт                                  : 1509 Кбит/сек
Каналы                                   : 6 каналов
Расположение каналов                     : Front: L C R, Side: L R, LFE
Частота                                  : 48,0 КГц
Битовая глубина                          : 24 бит
Метод сжатия                             : С потерями
Размер потока                            : 1,28 Гбайт (8%)
Заголовок                                : AVO - Ю.Живов
Язык                                     : Russian
Default                                  : Нет
Forced                                   : Нет
Аудио #10
Идентификатор                            : 11
Формат                                   : DTS
Формат/Информация                        : Digital Theater Systems
Режим                                    : 16
Параметр Endianness формата              : Big
Идентификатор кодека                     : A_DTS
Продолжительность                        : 2 ч. 1 м.
Вид битрейта                             : Постоянный
Битрейт                                  : 1509 Кбит/сек
Каналы                                   : 6 каналов
Расположение каналов                     : Front: L C R, Side: L R, LFE
Частота                                  : 48,0 КГц
Битовая глубина                          : 24 бит
Метод сжатия                             : С потерями
Размер потока                            : 1,28 Гбайт (8%)
Заголовок                                : Original
Язык                                     : English
Default                                  : Нет
Forced                                   : Нет
Текст #1
Идентификатор                            : 12
Формат                                   : UTF-8
Идентификатор кодека                     : S_TEXT/UTF8
Идентификатор кодека/Информация          : UTF-8 Plain Text
Заголовок                                : Russian
Язык                                     : Russian
Default                                  : Нет
Forced                                   : Нет
Текст #2
Идентификатор                            : 13
Формат                                   : UTF-8
Идентификатор кодека                     : S_TEXT/UTF8
Идентификатор кодека/Информация          : UTF-8 Plain Text
Заголовок                                : English
Язык                                     : English
Default                                  : Нет
Forced                                   : Нет
Меню
00:00:00.000                             : en:Start
00:07:01.796                             : en:Team Dynamics
00:10:28.962                             : en:Botched Exchange
00:15:23.339                             : en:New Negotiations
00:17:22.083                             : en:Photographic Study
00:18:55.051                             : en:Remote Sensor Tracking
00:24:12.785                             : en:In Search of Gregor
00:26:20.662                             : en:Answering to the Boss
00:27:20.138                             : en:Those Who Wait...
00:31:22.172                             : en:The Link to the Case
00:33:54.491                             : en:Ice-Skating Gala
00:39:19.899                             : en:Farewell
00:41:19.352                             : en:Bull's-Eye Bombing
00:45:21.719                             : en:Chasing the Target
00:49:51.238                             : en:Crashing the Case
00:51:35.843                             : en:Spiritual Doctor
00:54:35.564                             : en:"Life Is Uncertain"
00:57:32.240                             : en:Gregor's Icy Ring
00:58:53.238                             : en:"I Need Your Help!"
01:01:21.344                             : en:The Arena Massacre
01:09:04.599                             : en:Directing Surgery
01:14:48.275                             : en:Seamus' Hostility
01:20:06.051                             : en:Masterless Samurai
01:24:01.495                             : en:Fragile Hesitation
01:27:05.345                             : en:Chases to Die For
01:35:04.324                             : en:A Questionable Case
01:39:31.924                             : en:Scary Ice Skating
01:45:25.110                             : en:Gregor's Gunned Down
01:49:22.264                             : en:A Frenzy of Fleeing
01:51:49.411                             : en:Showdown with Seamus
01:53:46.403                             : en:"Peaceful" Closure
01:56:02.581                             : en:Credits

Награды и премии

Премия канала «MTV», 1999 год
Номинации (1):
*** Лучшая экшн-сцена
Сатурн, 1999 год
Номинации (1):
*** Лучший приключенческий фильм, боевик или триллер

Интересные факты

*** Слово Ронин японского происхождения. Образовано оно из двух иероглифов-понятий, означающих волна и человек (единственный русский аналог этого слова — голь перекатная). Ронинами в средневековой Японии называли деклассированных самураев, большинство которых превращались в разбойников и наемных убийц. В японском фольклоре ронин, естественно, был героем — Робин Гудом местного разлива, благородным защитником угнетенных. О ронинах сочинялись романы, снимались фильмы. Акира Куросава воспел ронинов в «Семи самураях».
*** Сценарий Дж. Д. Зейка был приобретен за полмиллиона долларов кинокомпанией TriStar. В начале 1997 года его перекупила United Artists.
*** Сценарным доктором на проекте работал Дэвид Мамет. Он значительно переделал первоначальный сценарий, внеся серьезные изменения в характеры и диалоги персонажей. В результате этого разгорелись споры по поводу того, какое место должен занимать Мамет в титрах. Он же был согласен появится в титрах либо под псевдонимом, либо вообще там не значится. Дело закончилось тем, что в титрах были указаны Дж. Д. Зейк и загадочный Ричард Вайс (псевдоним Мамета).
*** Режиссер фильма Джон Франкенхаймер хотел пригласить на роль второго плана Джимона Хонсу, снявшегося до этого у Спилберга в «Амистаде», но продюсерам его выбор не понравился. Франкенхаймер также пытался пригласить Алека Болдуина, но тот отказался сниматься в Европе, так как не хотел расставаться с семьей.
*** Во время съемок было разбито 80 автомобилей.
*** В картине сыграли сразу три исполнителя злодеев в фильмах о Джеймсе Бонде: Майкл Лонсдейл, Шон Бин и Джонатан Прайс.
*** Главная музыкальная тема фильма исполнена на армянском дудуке.
*** Фигуристку Наташу Кириллову, двукратную олимпийскую чемпионку и трехкратную чемпионку мира, сыграла двукратная олимпийская чемпионка и четырехкратная чемпионка мира Катарина Уитт.
Скриншоты:
Не жилим спасибо. Не забываем голосовать за трекер!!!


Показать сообщения:    

Текущее время: 21-Май 03:48

Часовой пояс: UTC + 3


Вы не можете начинать темы
Вы не можете отвечать на сообщения
Вы не можете редактировать свои сообщения
Вы не можете удалять свои сообщения
Вы не можете голосовать в опросах
Вы не можете прикреплять файлы к сообщениям
Вы не можете скачивать файлы

!ВНИМАНИЕ!
Сайт не предоставляет электронные версии произведений, а занимается лишь коллекционированием и каталогизацией ссылок, присылаемых и публикуемых на форуме нашими читателями. Если вы являетесь правообладателем какого-либо представленного материала и не желаете, чтобы ссылка на него находилась в нашем каталоге, свяжитесь с нами, и мы незамедлительно удалим ее. Файлы для обмена на трекере предоставлены пользователями сайта, и администрация не несет ответственности за их содержание. Просьба не заливать файлы, защищенные авторскими правами, а также файлы нелегального содержания!