۩ ‼ Вы находитесь на Бесплатном торрент-трекере TORRNADA.com ۩ Зарегистрируйтесь для получения полного доступа ко всем функциям сайта ! ۩ После регистрации подпишитесь на нашу рассылку в своём профиле ۩
Auto Web Pinger

 

[Цитировать]

Барабан / Drum (1976) HDTV [H.264/1080i]- Производство: США, Dino De Laurentiis Company
Жанр: Боевик, Драма
Режиссер: Стив Карвер, Берт Кеннеди
Актеры: Уоррен Оутс, Исела Вега, Кен Нортон, Пэм Гриер, Яфет Котто, Джон Коликос, Фиона Льюис, Паула Келли, Ройал Дэно, Лиллиэн Хейман
Описание:
История раба середины 19-го века, который страдает от вынужденной "карьеры" бойца и издевательств белого общества.

Продолжительность: 01:35:55
Качество видео: HDTV [1080i]
Перевод: Двуголосый закадровый
Автор перевода: НТВ+
Видео: AVC/H.264, 1920х1080, ~4888 kbps
Аудио: MP2, 2 ch, 192 kbps, CBR
Семпл: Скачать

Mediainfo:

Общее
Идентификатор                            : 16 (0x10)
Полное имя                               : Drum_HD.ts
Формат                                   : MPEG-TS
Размер файла                             : 3,58 Гбайт
Продолжительность                        : 1 ч. 35 м.
Режим общего битрейта                    : Переменный
Общий поток                              : 5346 Кбит/сек
Видео
Идентификатор                            : 1606 (0x646)
Идентификатор меню                       : 606 (0x25E)
Формат                                   : AVC
Формат/Информация                        : Advanced Video Codec
Профиль формата                          : High@L4.0
Параметр CABAC формата                   : Да
Параметр ReFrames формата                : 3 кадра
Параметр GOP формата                     : M=4, N=32
Идентификатор кодека                     : 27
Продолжительность                        : 1 ч. 35 м.
Битрейт                                  : 4888 Кбит/сек
Ширина                                   : 1920 пикселей
Высота                                   : 1080 пикселей
Соотношение сторон                       : 16:9
Частота кадров                           : 25,000 кадров/сек
Стандарт вещания                         : PAL
Цветовое пространство                    : YUV
Субдискретизация насыщенности            : 4:2:0
Битовая глубина                          : 8 бит
Тип развёртки                            : Чересстрочная
Порядок развёртки                        : Верхнее поле первое
Бит/(Пиксели*Кадры)                      : 0.094
Размер потока                            : 3,27 Гбайт (91%)
Основные цвета                           : BT.709
Характеристики трансфера                 : BT.709
Коэффициенты матрицы                     : BT.709
Аудио
Идентификатор                            : 2606 (0xA2E)
Идентификатор меню                       : 606 (0x25E)
Формат                                   : MPEG Audio
Версия формата                           : Version 1
Профиль формата                          : Layer 2
Идентификатор кодека                     : 4
Продолжительность                        : 1 ч. 35 м.
Вид битрейта                             : Постоянный
Битрейт                                  : 192 Кбит/сек
Каналы                                   : 2 канала
Частота                                  : 48,0 КГц
Метод сжатия                             : С потерями
Задержка видео                           : 112 мс.
Размер потока                            : 132 Мбайт (4%)
Язык                                     : std
Язык, дополнительно                      : Clean effects
Скриншоты:
Не жилим спасибо. Не забываем голосовать за трекер!!!


Показать сообщения:    

Текущее время: 19-Май 12:10

Часовой пояс: UTC + 3


Вы не можете начинать темы
Вы не можете отвечать на сообщения
Вы не можете редактировать свои сообщения
Вы не можете удалять свои сообщения
Вы не можете голосовать в опросах
Вы не можете прикреплять файлы к сообщениям
Вы не можете скачивать файлы

!ВНИМАНИЕ!
Сайт не предоставляет электронные версии произведений, а занимается лишь коллекционированием и каталогизацией ссылок, присылаемых и публикуемых на форуме нашими читателями. Если вы являетесь правообладателем какого-либо представленного материала и не желаете, чтобы ссылка на него находилась в нашем каталоге, свяжитесь с нами, и мы незамедлительно удалим ее. Файлы для обмена на трекере предоставлены пользователями сайта, и администрация не несет ответственности за их содержание. Просьба не заливать файлы, защищенные авторскими правами, а также файлы нелегального содержания!