۩ ‼ Вы находитесь на Бесплатном торрент-трекере TORRNADA.com ۩ Зарегистрируйтесь для получения полного доступа ко всем функциям сайта ! ۩ После регистрации подпишитесь на нашу рассылку в своём профиле ۩
Auto Web Pinger

 

[Цитировать]

Asia 2001 - 8 Альбомов (1996-2015) - -Год: 1996-2015 Жанр: GOA Trance
Продолжительность: 10:06:56 Страна:France,Israel,Belgium
Кодек: FLAC(image + .cue) Битрейт: Lossless
-Треклист:

Strange World

Год: 1996
Лейбл: Trans'Pact Productions
Каталог: 096-004, CD 50603
Продолжительность: 00:59:16
Треклист:
01. Strange World (07:36)
02. Lokâyatikas (07:57)
03. 7ème Symbol (06:14)
04. The Prayer (07:42)
05. Processor 5 (08:53)
06. Life Storm (07:11)
07. Cyborg (06:36)
08. Buddha Compation (07:04)

Отчёт ЕАС:

Exact Audio Copy V1.0 beta 3 from 29. August 2011
EAC extraction logfile from 11. November 2012, 0:14
Asia 2001 / Strange World
Used drive  : HL-DT-STDVDRAM GT30N   Adapter: 0  ID: 1
Read mode               : Secure
Utilize accurate stream : Yes
Defeat audio cache      : Yes
Make use of C2 pointers : No
Read offset correction                      : 103
Overread into Lead-In and Lead-Out          : No
Fill up missing offset samples with silence : Yes
Delete leading and trailing silent blocks   : No
Null samples used in CRC calculations       : Yes
Used interface                              : Native Win32 interface for Win NT & 2000
Used output format              : User Defined Encoder
Selected bitrate                : 1024 kBit/s
Quality                         : High
Add ID3 tag                     : No
Command line compressor         : C:\Program Files\Exact Audio Copy\Flac\flac.exe
Additional command line options : -V -8 -T "Genre=%genre%" -T "Artist=%artist%" -T "Title=%title%" -T "Album=%albumtitle%" -T "Date=%year%" -T "Tracknumber=%tracknr%" -T "Comment=%comment%" %source%
TOC of the extracted CD
     Track |   Start  |  Length  | Start sector | End sector
    ---------------------------------------------------------
        1  |  0:00.32 |  7:36.35 |        32    |    34266
        2  |  7:36.67 |  7:57.30 |     34267    |    70071
        3  | 15:34.22 |  6:14.23 |     70072    |    98144
        4  | 21:48.45 |  7:42.35 |     98145    |   132829
        5  | 29:31.05 |  8:53.12 |    132830    |   172816
        6  | 38:24.17 |  7:11.35 |    172817    |   205176
        7  | 45:35.52 |  6:36.03 |    205177    |   234879
        8  | 52:11.55 |  7:04.47 |    234880    |   266726
Range status and errors
Selected range
     Filename D:\Laren\ૐ\Asia 2001 - Strange World.wav
     Peak level 99.9 %
     Extraction speed 2.1 X
     Range quality 99.9 %
     Test CRC CD4245CA
     Copy CRC CD4245CA
     Copy OK
No errors occurred
AccurateRip summary
Track  1  accurately ripped (confidence 2)  [A5E2F831]  (AR v1)
Track  2  accurately ripped (confidence 2)  [C2E16258]  (AR v1)
Track  3  accurately ripped (confidence 2)  [60AC85E8]  (AR v1)
Track  4  accurately ripped (confidence 2)  [E80B0642]  (AR v1)
Track  5  accurately ripped (confidence 2)  [E6CDD2DB]  (AR v1)
Track  6  accurately ripped (confidence 2)  [9F4584BF]  (AR v1)
Track  7  accurately ripped (confidence 2)  [E1C52BF5]  (AR v1)
Track  8  accurately ripped (confidence 2)  [0FD820A9]  (AR v1)
All tracks accurately ripped
End of status report
==== Log checksum 2441A4B9EAFA604402623E615A6CE6DDAA5CB5863276EEFC7677A33B5C706157 ====

Отчёт auCDtect Task manager:

-----------------------
DON'T MODIFY THIS FILE
-----------------------
PERFORMER: auCDtect Task Manager, ver. 1.6.0 RC1 build 1.6.0.1
Copyright (c) 2008-2010 y-soft. All rights reserved
http://y-soft.org
ANALYZER: auCDtect: CD records authenticity detector, version 0.8.2
Copyright (c) 2004 Oleg Berngardt. All rights reserved.
Copyright (c) 2004 Alexander Djourik. All rights reserved.
FILE: Asia 2001 - Strange World.flac
  Size: 415867656 Hash: DDB10F10A8C9B019D014EA441C40F26D Accuracy: -m0
  Conclusion: CDDA 99%
  Signature: BA5811110A3384B67520759FD813C1673FBDCD54

CUE:

REM GENRE "Goa Trance"
REM DATE 1996
REM DISCID 640DE408
REM COMMENT "ExactAudioCopy v1.0b3"
PERFORMER "Asia 2001"
TITLE "Strange World"
FILE "Asia 2001 - Strange World.flac" WAVE
  TRACK 01 AUDIO
    TITLE "Strange World"
    PERFORMER "Asia 2001"
    INDEX 00 00:00:00
    INDEX 01 00:00:32
  TRACK 02 AUDIO
    TITLE "Lokayatikas"
    PERFORMER "Asia 2001"
    INDEX 00 07:35:60
    INDEX 01 07:36:67
  TRACK 03 AUDIO
    TITLE "7eme Symbol"
    PERFORMER "Asia 2001"
    INDEX 00 15:32:62
    INDEX 01 15:34:22
  TRACK 04 AUDIO
    TITLE "The Prayer"
    PERFORMER "Asia 2001"
    INDEX 00 21:47:12
    INDEX 01 21:48:45
  TRACK 05 AUDIO
    TITLE "Processor 5"
    PERFORMER "Asia 2001"
    INDEX 00 29:30:40
    INDEX 01 29:31:05
  TRACK 06 AUDIO
    TITLE "Life Storm"
    PERFORMER "Asia 2001"
    INDEX 01 38:24:17
  TRACK 07 AUDIO
    TITLE "Cyborg"
    PERFORMER "Asia 2001"
    INDEX 01 45:35:52
  TRACK 08 AUDIO
    TITLE "Buddha Compation"
    PERFORMER "Asia 2001"
    INDEX 00 52:11:45
    INDEX 01 52:11:55

Спектрограмма:

Live

Год: 1996
Лейбл: Trans'Pact Productions
Каталог: 096-006, CD 50614
Продолжительность: 01:10:17
Треклист:
01. Asia 2001 - Strange World (07:39)
02. Asia 2001 - Kalimba (08:20)
03. Asia 2001 - Super Skunk (10:18)
04. Asia 2001 - Rakshas (08:29)
05. Asia 2001 - Bengali (08:12)
06. Asia 2001 - Kalimba (Remix) (07:36)
07. MFG - Magnetic Activity (Remix) (08:48)
08. MFG - Overload (Remix) (10:51)

Отчёт ЕАС:

Exact Audio Copy V1.0 beta 3 from 29. August 2011
EAC extraction logfile from 12. November 2012, 15:57
Asia 2001 / Live
Used drive  : HL-DT-STDVDRAM GT30N   Adapter: 0  ID: 1
Read mode               : Secure
Utilize accurate stream : Yes
Defeat audio cache      : Yes
Make use of C2 pointers : No
Read offset correction                      : 103
Overread into Lead-In and Lead-Out          : No
Fill up missing offset samples with silence : Yes
Delete leading and trailing silent blocks   : No
Null samples used in CRC calculations       : Yes
Used interface                              : Native Win32 interface for Win NT & 2000
Used output format              : User Defined Encoder
Selected bitrate                : 1024 kBit/s
Quality                         : High
Add ID3 tag                     : No
Command line compressor         : C:\Program Files\Exact Audio Copy\Flac\flac.exe
Additional command line options : -V -8 -T "Genre=%genre%" -T "Artist=%artist%" -T "Title=%title%" -T "Album=%albumtitle%" -T "Date=%year%" -T "Tracknumber=%tracknr%" -T "Comment=%comment%" %source%
TOC of the extracted CD
     Track |   Start  |  Length  | Start sector | End sector
    ---------------------------------------------------------
        1  |  0:00.32 |  7:39.60 |        32    |    34516
        2  |  7:40.17 |  8:20.05 |     34517    |    72021
        3  | 16:00.22 | 10:18.33 |     72022    |   118404
        4  | 26:18.55 |  8:29.37 |    118405    |   156616
        5  | 34:48.17 |  8:12.68 |    156617    |   193584
        6  | 43:01.10 |  7:36.40 |    193585    |   227824
        7  | 50:37.50 |  8:48.37 |    227825    |   267461
        8  | 59:26.12 | 10:51.05 |    267462    |   316291
Range status and errors
Selected range
     Filename D:\Laren\ૐ\Asia 2001 - Live.wav
     Peak level 100.0 %
     Extraction speed 2.2 X
     Range quality 100.0 %
     Test CRC D0127C98
     Copy CRC D0127C98
     Copy OK
No errors occurred
AccurateRip summary
Track  1  accurately ripped (confidence 2)  [900A101C]  (AR v1)
Track  2  accurately ripped (confidence 2)  [FE69D373]  (AR v1)
Track  3  accurately ripped (confidence 2)  [A5265312]  (AR v1)
Track  4  accurately ripped (confidence 2)  [43545334]  (AR v1)
Track  5  accurately ripped (confidence 2)  [8CCC5191]  (AR v1)
Track  6  accurately ripped (confidence 2)  [56FF2286]  (AR v1)
Track  7  accurately ripped (confidence 2)  [20055397]  (AR v1)
Track  8  accurately ripped (confidence 2)  [25E114FA]  (AR v1)
All tracks accurately ripped
End of status report
==== Log checksum 5E07DC0BE995E32EEBF6046325C439600ECAF1B68E46A85E04F87AE71875CC16 ====

Отчёт auCDtect Task manager:

-----------------------
DON'T MODIFY THIS FILE
-----------------------
PERFORMER: auCDtect Task Manager, ver. 1.6.0 RC1 build 1.6.0.1
Copyright (c) 2008-2010 y-soft. All rights reserved
http://y-soft.org
ANALYZER: auCDtect: CD records authenticity detector, version 0.8.2
Copyright (c) 2004 Oleg Berngardt. All rights reserved.
Copyright (c) 2004 Alexander Djourik. All rights reserved.
FILE: Asia 2001 - Live.flac
  Size: 487120128 Hash: 1E01F5384B7CBD039BA3463171DEEBAC Accuracy: -m0
  Conclusion: MPEG 95%
  Signature: 8FAD23F46395612F85963575B4AB62DF4CCE9035

CUE:

REM GENRE "Goa Trance"
REM DATE 1996
REM DISCID 6F107908
REM COMMENT "ExactAudioCopy v1.0b3"
PERFORMER "Asia 2001"
TITLE "Live"
FILE "Asia 2001 - Live.flac" WAVE
  TRACK 01 AUDIO
    TITLE "Strange World"
    PERFORMER "Asia 2001"
    INDEX 00 00:00:00
    INDEX 01 00:00:32
  TRACK 02 AUDIO
    TITLE "Kalimba"
    PERFORMER "Asia 2001"
    INDEX 01 07:40:17
  TRACK 03 AUDIO
    TITLE "Super Skunk"
    PERFORMER "Asia 2001"
    INDEX 01 16:00:22
  TRACK 04 AUDIO
    TITLE "Rakshas"
    PERFORMER "Asia 2001"
    INDEX 01 26:18:55
  TRACK 05 AUDIO
    TITLE "Bengali"
    PERFORMER "Asia 2001"
    INDEX 01 34:48:17
  TRACK 06 AUDIO
    TITLE "Kalimba (Remix)"
    PERFORMER "Asia 2001"
    INDEX 01 43:01:10
  TRACK 07 AUDIO
    TITLE "Magnetic Activity (Remix)"
    PERFORMER "MFG"
    INDEX 00 50:35:67
    INDEX 01 50:37:50
  TRACK 08 AUDIO
    TITLE "Overload (Remix)"
    PERFORMER "MFG"
    INDEX 00 59:25:05
    INDEX 01 59:26:12

Спектрограмма:

Ra

Год: 1996
Лейбл:Trans'Pact Productions
Каталог:096-002, CD 50585
Продолжительность:01:10:19
Треклист:
01. Rotopod (09:00)
02. Paradise Island (07:32)
03. Planetarium (06:57)
04. Angel Ice (06:37)
05. Ultime Sens (06:18)
06. Dawn To Dusk (06:21)
07. Cyborg Culture (09:10)
08. Râ (08:29)
09. Lunar Attraction (07:09)
10. Epilogue (02:39)

Отчёт ЕАС:

Exact Audio Copy V1.0 beta 3 from 29. August 2011
EAC extraction logfile from 11. November 2012, 14:07
Asia 2001 / Ra
Used drive  : HL-DT-STDVDRAM GT30N   Adapter: 0  ID: 1
Read mode               : Secure
Utilize accurate stream : Yes
Defeat audio cache      : Yes
Make use of C2 pointers : No
Read offset correction                      : 103
Overread into Lead-In and Lead-Out          : No
Fill up missing offset samples with silence : Yes
Delete leading and trailing silent blocks   : No
Null samples used in CRC calculations       : Yes
Used interface                              : Native Win32 interface for Win NT & 2000
Used output format              : User Defined Encoder
Selected bitrate                : 1024 kBit/s
Quality                         : High
Add ID3 tag                     : No
Command line compressor         : C:\Program Files\Exact Audio Copy\Flac\flac.exe
Additional command line options : -V -8 -T "Genre=%genre%" -T "Artist=%artist%" -T "Title=%title%" -T "Album=%albumtitle%" -T "Date=%year%" -T "Tracknumber=%tracknr%" -T "Comment=%comment%" %source%
TOC of the extracted CD
     Track |   Start  |  Length  | Start sector | End sector
    ---------------------------------------------------------
        1  |  0:00.32 |  9:00.08 |        32    |    40539
        2  |  9:00.40 |  7:32.52 |     40540    |    74491
        3  | 16:33.17 |  6:57.73 |     74492    |   105839
        4  | 23:31.15 |  6:37.70 |    105840    |   135684
        5  | 30:09.10 |  6:18.50 |    135685    |   164084
        6  | 36:27.60 |  6:21.52 |    164085    |   192711
        7  | 42:49.37 |  9:10.70 |    192712    |   234031
        8  | 52:00.32 |  8:29.28 |    234032    |   272234
        9  | 60:29.60 |  7:09.65 |    272235    |   304474
       10  | 67:39.50 |  2:39.55 |    304475    |   316454
Range status and errors
Selected range
     Filename D:\Laren\ૐ\Asia 2001 - Ra.wav
     Peak level 87.5 %
     Extraction speed 2.2 X
     Range quality 99.9 %
     Test CRC B6FFFCBD
     Copy CRC B6FFFCBD
     Copy OK
No errors occurred
AccurateRip summary
Track  1  not present in database
Track  2  not present in database
Track  3  not present in database
Track  4  not present in database
Track  5  not present in database
Track  6  not present in database
Track  7  not present in database
Track  8  not present in database
Track  9  not present in database
Track 10  not present in database
None of the tracks are present in the AccurateRip database
End of status report
==== Log checksum CFD3EFB5B3E7D913A57604B23A349EE2E4A0A75A5DBB6BB9D89E7D29D5640A69 ====

Отчёт auCDtect Task manager:

-----------------------
DON'T MODIFY THIS FILE
-----------------------
PERFORMER: auCDtect Task Manager, ver. 1.6.0 RC1 build 1.6.0.1
Copyright (c) 2008-2010 y-soft. All rights reserved
http://y-soft.org
ANALYZER: auCDtect: CD records authenticity detector, version 0.8.2
Copyright (c) 2004 Oleg Berngardt. All rights reserved.
Copyright (c) 2004 Alexander Djourik. All rights reserved.
FILE: Asia 2001 - Ra.flac
  Size: 468037145 Hash: 5D261C47975F8B9880A1507AD9918260 Accuracy: -m0
  Conclusion: CDDA 100%
  Signature: 28338ADAA85B638D0F4E550F9DF7F7F10839EF20

CUE:

REM GENRE "Goa Trance"
REM DATE 1996
REM DISCID 7B107B0A
REM COMMENT "ExactAudioCopy v1.0b3"
PERFORMER "Asia 2001"
TITLE "Ra"
FILE "Asia 2001 - Ra.flac" WAVE
  TRACK 01 AUDIO
    TITLE "Rotopod"
    PERFORMER "Asia 2001"
    INDEX 00 00:00:00
    INDEX 01 00:00:32
  TRACK 02 AUDIO
    TITLE "Paradise Island"
    PERFORMER "Asia 2001"
    INDEX 00 08:56:65
    INDEX 01 09:00:40
  TRACK 03 AUDIO
    TITLE "Planetarium"
    PERFORMER "Asia 2001"
    INDEX 00 16:32:05
    INDEX 01 16:33:17
  TRACK 04 AUDIO
    TITLE "Angel Ice"
    PERFORMER "Asia 2001"
    INDEX 00 23:27:12
    INDEX 01 23:31:15
  TRACK 05 AUDIO
    TITLE "Ultime Sens"
    PERFORMER "Asia 2001"
    INDEX 00 30:03:37
    INDEX 01 30:09:10
  TRACK 06 AUDIO
    TITLE "Dawn To Dusk"
    PERFORMER "Asia 2001"
    INDEX 00 36:26:55
    INDEX 01 36:27:60
  TRACK 07 AUDIO
    TITLE "Cyborg Culture"
    PERFORMER "Asia 2001"
    INDEX 00 42:48:15
    INDEX 01 42:49:37
  TRACK 08 AUDIO
    TITLE "Ra"
    PERFORMER "Asia 2001"
    INDEX 00 51:59:17
    INDEX 01 52:00:32
  TRACK 09 AUDIO
    TITLE "Lunar Attraction"
    PERFORMER "Asia 2001"
    INDEX 00 60:28:12
    INDEX 01 60:29:60
  TRACK 10 AUDIO
    TITLE "Epilogue"
    PERFORMER "Asia 2001"
    INDEX 00 67:37:55
    INDEX 01 67:39:50

Спектрограмма:

Ama Zone

Год: 1998
Лейбл:Avatar Records, NMC Music
Каталог:AVA CD1, 330051-2
Продолжительность:01:11:59
Треклист:
01. Red Horizones (07:22)
02. Bais 51 (07:28)
03. Antartica (08:12)
04. Full Moon Project (07:29)
05. Ama Zone (08:01)
06. Super JV (07:23)
07. Visitors (08:15)
08. Zeta Reticulli (Jarod Mix) (09:02)
09. Vertige (Paradiso Mix) (08:41)

Отчёт ЕАС:

Exact Audio Copy V1.0 beta 3 from 29. August 2011
EAC extraction logfile from 27. November 2012, 22:03
Asia 2001 / Ama Zone
Used drive  : HL-DT-STDVDRAM GT30N   Adapter: 0  ID: 1
Read mode               : Secure
Utilize accurate stream : Yes
Defeat audio cache      : Yes
Make use of C2 pointers : No
Read offset correction                      : 103
Overread into Lead-In and Lead-Out          : No
Fill up missing offset samples with silence : Yes
Delete leading and trailing silent blocks   : No
Null samples used in CRC calculations       : Yes
Used interface                              : Native Win32 interface for Win NT & 2000
Used output format              : User Defined Encoder
Selected bitrate                : 1024 kBit/s
Quality                         : High
Add ID3 tag                     : No
Command line compressor         : C:\Program Files\Exact Audio Copy\Flac\flac.exe
Additional command line options : -V -8 -T "Genre=%genre%" -T "Artist=%artist%" -T "Title=%title%" -T "Album=%albumtitle%" -T "Date=%year%" -T "Tracknumber=%tracknr%" -T "Comment=%comment%" %source%
TOC of the extracted CD
     Track |   Start  |  Length  | Start sector | End sector
    ---------------------------------------------------------
        1  |  0:00.00 |  7:22.57 |         0    |    33206
        2  |  7:22.57 |  7:28.25 |     33207    |    66831
        3  | 14:51.07 |  8:12.53 |     66832    |   103784
        4  | 23:03.60 |  7:29.33 |    103785    |   137492
        5  | 30:33.18 |  8:01.31 |    137493    |   173598
        6  | 38:34.49 |  7:23.29 |    173599    |   206852
        7  | 45:58.03 |  8:15.23 |    206853    |   244000
        8  | 54:13.26 |  9:02.64 |    244001    |   284714
        9  | 63:16.15 |  8:41.67 |    284715    |   323856
Range status and errors
Selected range
     Filename D:\Laren\ૐ\Asia 2001 - Ama Zone.wav
     Peak level 100.0 %
     Extraction speed 2.4 X
     Range quality 100.0 %
     Test CRC 0389872E
     Copy CRC 0389872E
     Copy OK
No errors occurred
AccurateRip summary
Track  1  accurately ripped (confidence 2)  [6ED03D0F]  (AR v1)
Track  2  accurately ripped (confidence 2)  [C6FB1624]  (AR v1)
Track  3  accurately ripped (confidence 2)  [AD7029D6]  (AR v1)
Track  4  accurately ripped (confidence 2)  [EDAAA5BB]  (AR v1)
Track  5  accurately ripped (confidence 2)  [795C0390]  (AR v1)
Track  6  accurately ripped (confidence 2)  [598C97C7]  (AR v1)
Track  7  accurately ripped (confidence 2)  [F68FCF43]  (AR v1)
Track  8  accurately ripped (confidence 2)  [16E5F055]  (AR v1)
Track  9  accurately ripped (confidence 2)  [A2C43E7C]  (AR v1)
All tracks accurately ripped
End of status report
==== Log checksum 089C5909A1559E13E97462A07B682B778122DB7CDEA2C3F3963D283939A92F4D ====

Отчёт auCDtect Task manager:

-----------------------
DON'T MODIFY THIS FILE
-----------------------
PERFORMER: auCDtect Task Manager, ver. 1.6.0 RC1 build 1.6.0.1
Copyright (c) 2008-2010 y-soft. All rights reserved
http://y-soft.org
ANALYZER: auCDtect: CD records authenticity detector, version 0.8.2
Copyright (c) 2004 Oleg Berngardt. All rights reserved.
Copyright (c) 2004 Alexander Djourik. All rights reserved.
FILE: Asia 2001 - Ama Zone.flac
  Size: 475579943 Hash: F950C80D8404AAF24F5344CEA418113A Accuracy: -m0
  Conclusion: CDDA 100%
  Signature: 47D0A328B784FEB9CD31C96A2FEF17DCC4F0BA99

CUE:

REM GENRE Goa
REM DATE 1998
REM DISCID 8910DE09
REM COMMENT "ExactAudioCopy v1.0b3"
PERFORMER "Asia 2001"
TITLE "Ama Zone"
FILE "Asia 2001 - Ama Zone.flac" WAVE
  TRACK 01 AUDIO
    TITLE "Red Horizones"
    PERFORMER "Asia 2001"
    FLAGS DCP
    INDEX 01 00:00:00
  TRACK 02 AUDIO
    TITLE "Bais 51"
    PERFORMER "Asia 2001"
    FLAGS DCP
    INDEX 00 07:21:27
    INDEX 01 07:22:57
  TRACK 03 AUDIO
    TITLE "Antartica"
    PERFORMER "Asia 2001"
    FLAGS DCP
    INDEX 00 14:49:37
    INDEX 01 14:51:07
  TRACK 04 AUDIO
    TITLE "Full Moon Project"
    PERFORMER "Asia 2001"
    FLAGS DCP
    INDEX 00 23:02:15
    INDEX 01 23:03:60
  TRACK 05 AUDIO
    TITLE "Ama Zone"
    PERFORMER "Asia 2001"
    FLAGS DCP
    INDEX 00 30:31:48
    INDEX 01 30:33:18
  TRACK 06 AUDIO
    TITLE "Super JV"
    PERFORMER "Asia 2001"
    FLAGS DCP
    INDEX 00 38:33:04
    INDEX 01 38:34:49
  TRACK 07 AUDIO
    TITLE "Visitors"
    PERFORMER "Asia 2001"
    FLAGS DCP
    INDEX 00 45:56:33
    INDEX 01 45:58:03
  TRACK 08 AUDIO
    TITLE "Zeta Reticulli (Jarod Mix)"
    PERFORMER "Asia 2001"
    FLAGS DCP
    INDEX 00 54:11:56
    INDEX 01 54:13:26
  TRACK 09 AUDIO
    TITLE "Vertige (Paradiso Mix)"
    PERFORMER "Asia 2001"
    FLAGS DCP
    INDEX 00 63:14:45
    INDEX 01 63:16:15

Спектрограмма:

Dreamland

Год: 2000
Лейбл:Avatar Records, NMC Music
Каталог:AVA CD04, 330096-2
Продолжительность:01:10:55
Треклист:
01. Orion In Maroc (09:31)
02. After 2001 (Loren-X Remix) (06:03)
03. The Last Survivors (06:20)
04. 1666 (Loren-X Remix) (06:05)
05. Majestic 12 (06:47)
06. Anafuzz (08:01)
07. Profetic (08:26)
08. We Are Not Alone (07:01)
09. Girl From Acropolis (00:54)
10. Black Sun (05:28)
11. Dreamland (06:13)

Отчёт ЕАС:

Exact Audio Copy V1.0 beta 3 from 29. August 2011
EAC extraction logfile from 30. November 2012, 13:36
Asia 2001 / Dreamland
Used drive  : HL-DT-STDVDRAM GT30N   Adapter: 0  ID: 1
Read mode               : Secure
Utilize accurate stream : Yes
Defeat audio cache      : Yes
Make use of C2 pointers : No
Read offset correction                      : 103
Overread into Lead-In and Lead-Out          : No
Fill up missing offset samples with silence : Yes
Delete leading and trailing silent blocks   : No
Null samples used in CRC calculations       : Yes
Used interface                              : Native Win32 interface for Win NT & 2000
Used output format              : User Defined Encoder
Selected bitrate                : 1024 kBit/s
Quality                         : High
Add ID3 tag                     : No
Command line compressor         : C:\Program Files\Exact Audio Copy\Flac\flac.exe
Additional command line options : -V -8 -T "Genre=%genre%" -T "Artist=%artist%" -T "Title=%title%" -T "Album=%albumtitle%" -T "Date=%year%" -T "Tracknumber=%tracknr%" -T "Comment=%comment%" %source%
TOC of the extracted CD
     Track |   Start  |  Length  | Start sector | End sector
    ---------------------------------------------------------
        1  |  0:00.00 |  9:31.45 |         0    |    42869
        2  |  9:31.45 |  6:03.48 |     42870    |    70142
        3  | 15:35.18 |  6:20.54 |     70143    |    98696
        4  | 21:55.72 |  6:05.13 |     98697    |   126084
        5  | 28:01.10 |  6:47.14 |    126085    |   156623
        6  | 34:48.24 |  8:01.73 |    156624    |   192771
        7  | 42:50.22 |  8:26.45 |    192772    |   230766
        8  | 51:16.67 |  7:01.61 |    230767    |   262402
        9  | 58:18.53 |  0:54.00 |    262403    |   266452
       10  | 59:12.53 |  5:28.56 |    266453    |   291108
       11  | 64:41.34 |  6:13.20 |    291109    |   319103
Range status and errors
Selected range
     Filename D:\Laren\ૐ\Asia 2001 - Dreamland.wav
     Peak level 100.0 %
     Extraction speed 2.2 X
     Range quality 100.0 %
     Test CRC 4C1CFE13
     Copy CRC 4C1CFE13
     Copy OK
No errors occurred
AccurateRip summary
Track  1  not present in database
Track  2  not present in database
Track  3  not present in database
Track  4  not present in database
Track  5  not present in database
Track  6  not present in database
Track  7  not present in database
Track  8  cannot be verified as accurate (confidence 1)  [D7FA9B4B], AccurateRip returned [600B293A]  (AR v2)
Track  9  cannot be verified as accurate (confidence 1)  [3E8C0152], AccurateRip returned [3B0CCEC3]  (AR v2)
Track 10  cannot be verified as accurate (confidence 1)  [6BD0E008], AccurateRip returned [055089E0]  (AR v2)
Track 11  cannot be verified as accurate (confidence 1)  [E83FF41B], AccurateRip returned [FB3E0CC1]  (AR v2)
4 трек(и) не удалось проверить на точность
7 трек(и) не содержатся в базе AccurateRip
No tracks could be verified as accurate
You may have a different pressing from the one(s) in the database
End of status report
==== Log checksum 3917A92EB58BFE0F97F2AD5876E3191CE339711E6C40638862753FAED716E084 ====

Отчёт auCDtect Task manager:

-----------------------
DON'T MODIFY THIS FILE
-----------------------
PERFORMER: auCDtect Task Manager, ver. 1.6.0 RC1 build 1.6.0.1
Copyright (c) 2008-2010 y-soft. All rights reserved
http://y-soft.org
ANALYZER: auCDtect: CD records authenticity detector, version 0.8.2
Copyright (c) 2004 Oleg Berngardt. All rights reserved.
Copyright (c) 2004 Alexander Djourik. All rights reserved.
FILE: Asia 2001 - Dreamland.flac
  Size: 488545817 Hash: 094FBDB04A538BC9BAD7D5DFED1FE6EA Accuracy: -m0
  Conclusion: CDDA 100%
  Signature: C749E1FDDFC616A85FB51973FFEC8DF4308079E4

CUE:

REM GENRE Trance
REM DATE 2000
REM DISCID 9E109E0B
REM COMMENT "ExactAudioCopy v1.0b3"
PERFORMER "Asia 2001"
TITLE "Dreamland"
FILE "Asia 2001 - Dreamland.flac" WAVE
  TRACK 01 AUDIO
    TITLE "Orion In Maroc"
    PERFORMER "Asia 2001"
    INDEX 01 00:00:00
  TRACK 02 AUDIO
    TITLE "After 2001 (Loren-X Remix)"
    PERFORMER "Asia 2001"
    INDEX 01 09:31:45
  TRACK 03 AUDIO
    TITLE "The Last Survivors"
    PERFORMER "Asia 2001"
    INDEX 01 15:35:18
  TRACK 04 AUDIO
    TITLE "1666 (Loren-X Remix)"
    PERFORMER "Asia 2001"
    INDEX 01 21:55:72
  TRACK 05 AUDIO
    TITLE "Majestic 12"
    PERFORMER "Asia 2001"
    INDEX 01 28:01:10
  TRACK 06 AUDIO
    TITLE "Anafuzz"
    PERFORMER "Asia 2001"
    INDEX 01 34:48:24
  TRACK 07 AUDIO
    TITLE "Profetic"
    PERFORMER "Asia 2001"
    INDEX 01 42:50:22
  TRACK 08 AUDIO
    TITLE "We Are Not Alone"
    PERFORMER "Asia 2001"
    INDEX 01 51:16:67
  TRACK 09 AUDIO
    TITLE "Girl From Acropolis"
    PERFORMER "Asia 2001"
    INDEX 01 58:18:53
  TRACK 10 AUDIO
    TITLE "Black Sun"
    PERFORMER "Asia 2001"
    INDEX 01 59:12:53
  TRACK 11 AUDIO
    TITLE "Dreamland"
    PERFORMER "Asia 2001"
    INDEX 01 64:41:34

Спектрограмма:

Abduction

Год: 2001
Лейбл:Avatar Records, NMC Music
Каталог:AVA 009, 330153-2
Продолжительность:01:02:21
Треклист:
01. X-Ray (07:00)
02. Paris - New York (06:15)
03. Scream (07:31)
04. Light On L.A. (06:29)
05. Planet Gonzo (04:38)
06. Tunnel (05:00)
07. Abduction (07:09)
08. Blond Girls (05:01)
09. Seven Times (03:52)
10. Paradise Planet (05:32)
11. 2666 (03:47)

Отчёт ЕАС:

Exact Audio Copy V1.0 beta 3 from 29. August 2011
EAC extraction logfile from 30. November 2012, 16:18
Asia 2001 / Abduction
Used drive  : HL-DT-STDVDRAM GT30N   Adapter: 0  ID: 1
Read mode               : Secure
Utilize accurate stream : Yes
Defeat audio cache      : Yes
Make use of C2 pointers : No
Read offset correction                      : 103
Overread into Lead-In and Lead-Out          : No
Fill up missing offset samples with silence : Yes
Delete leading and trailing silent blocks   : No
Null samples used in CRC calculations       : Yes
Used interface                              : Native Win32 interface for Win NT & 2000
Used output format              : User Defined Encoder
Selected bitrate                : 1024 kBit/s
Quality                         : High
Add ID3 tag                     : No
Command line compressor         : C:\Program Files\Exact Audio Copy\Flac\flac.exe
Additional command line options : -V -8 -T "Genre=%genre%" -T "Artist=%artist%" -T "Title=%title%" -T "Album=%albumtitle%" -T "Date=%year%" -T "Tracknumber=%tracknr%" -T "Comment=%comment%" %source%
TOC of the extracted CD
     Track |   Start  |  Length  | Start sector | End sector
    ---------------------------------------------------------
        1  |  0:00.00 |  7:00.47 |         0    |    31546
        2  |  7:00.47 |  6:15.58 |     31547    |    59729
        3  | 13:16.30 |  7:31.40 |     59730    |    93594
        4  | 20:47.70 |  6:29.40 |     93595    |   122809
        5  | 27:17.35 |  4:38.51 |    122810    |   143710
        6  | 31:56.11 |  5:00.50 |    143711    |   166260
        7  | 36:56.61 |  7:09.55 |    166261    |   198490
        8  | 44:06.41 |  5:01.49 |    198491    |   221114
        9  | 49:08.15 |  3:52.61 |    221115    |   238575
       10  | 53:01.01 |  5:32.42 |    238576    |   263517
       11  | 58:33.43 |  3:47.12 |    263518    |   280554
Range status and errors
Selected range
     Filename D:\Laren\ૐ\Asia 2001 - Abduction.wav
     Peak level 79.4 %
     Extraction speed 2.2 X
     Range quality 100.0 %
     Test CRC 73E5927B
     Copy CRC 73E5927B
     Copy OK
No errors occurred
AccurateRip summary
Track  1  accurately ripped (confidence 1)  [4FFB64EC]  (AR v1)
Track  2  accurately ripped (confidence 1)  [0838DB1B]  (AR v1)
Track  3  accurately ripped (confidence 1)  [63B8CAFA]  (AR v1)
Track  4  accurately ripped (confidence 1)  [9F0EB3EF]  (AR v1)
Track  5  accurately ripped (confidence 1)  [EBAD4143]  (AR v1)
Track  6  accurately ripped (confidence 1)  [E3774581]  (AR v1)
Track  7  accurately ripped (confidence 1)  [71A23954]  (AR v1)
Track  8  accurately ripped (confidence 1)  [220B8323]  (AR v1)
Track  9  accurately ripped (confidence 1)  [A74DB88C]  (AR v1)
Track 10  accurately ripped (confidence 1)  [02D28934]  (AR v1)
Track 11  accurately ripped (confidence 1)  [028BFBDA]  (AR v1)
All tracks accurately ripped
End of status report
==== Log checksum 9E30D8323C615BE8A250399289CC10C41F648CC719A835B1042310D4F0290A4E ====

Отчёт auCDtect Task manager:

-----------------------
DON'T MODIFY THIS FILE
-----------------------
PERFORMER: auCDtect Task Manager, ver. 1.6.0 RC1 build 1.6.0.1
Copyright (c) 2008-2010 y-soft. All rights reserved
http://y-soft.org
ANALYZER: auCDtect: CD records authenticity detector, version 0.8.2
Copyright (c) 2004 Oleg Berngardt. All rights reserved.
Copyright (c) 2004 Alexander Djourik. All rights reserved.
FILE: Asia 2001 - Abduction.flac
  Size: 406503604 Hash: 68F13E65F7BB48947A9D8BDCD26FD832 Accuracy: -m0
  Conclusion: CDDA 100%
  Signature: 7D2A99AAB759EBA32B0BDED746DE14472C29093B

CUE:

REM GENRE Trance
REM DATE 2001
REM DISCID A60E9C0B
REM COMMENT "ExactAudioCopy v1.0b3"
PERFORMER "Asia 2001"
TITLE "Abduction"
FILE "Asia 2001 - Abduction.flac" WAVE
  TRACK 01 AUDIO
    TITLE "X-Ray"
    PERFORMER "Asia 2001"
    INDEX 01 00:00:00
  TRACK 02 AUDIO
    TITLE "Paris-New York"
    PERFORMER "Asia 2001"
    INDEX 01 07:00:47
  TRACK 03 AUDIO
    TITLE "Scream"
    PERFORMER "Asia 2001"
    INDEX 01 13:16:30
  TRACK 04 AUDIO
    TITLE "Light On L.A."
    PERFORMER "Asia 2001"
    INDEX 01 20:47:70
  TRACK 05 AUDIO
    TITLE "Planet Gonzo"
    PERFORMER "Asia 2001"
    INDEX 01 27:17:35
  TRACK 06 AUDIO
    TITLE "Tunnel"
    PERFORMER "Asia 2001"
    INDEX 01 31:56:11
  TRACK 07 AUDIO
    TITLE "Abduction"
    PERFORMER "Asia 2001"
    INDEX 01 36:56:61
  TRACK 08 AUDIO
    TITLE "Blond Girls"
    PERFORMER "Asia 2001"
    INDEX 01 44:06:41
  TRACK 09 AUDIO
    TITLE "Seven Times"
    PERFORMER "Asia 2001"
    INDEX 01 49:08:15
  TRACK 10 AUDIO
    TITLE "Paradise Planet"
    PERFORMER "Asia 2001"
    INDEX 01 53:01:01
  TRACK 11 AUDIO
    TITLE "2666"
    PERFORMER "Asia 2001"
    INDEX 01 58:33:43

Спектрограмма:

Amnesia

CD1:

Год: 2005
Лейбл:Avatar Records
Каталог:AVA 030
Продолжительность:01:19:29
Треклист:
01. Orion (Corcovado Mix) (08:10)
02. Vertige (Goa Gil Burning Man Mix) (09:10)
03. Rakshas (08:23)
04. Psychadelia (08:03)
05. Bengali (08:17)
06. Eolis (08:40)
07. Caribbean Night (07:37)
08. Reykjavik (07:19)
09. Sherkan (07:05)
10. Dreamland (Space Cat Mix) (06:31)

Отчёт ЕАС:

Exact Audio Copy V1.0 beta 3 from 29. August 2011
EAC extraction logfile from 3. November 2012, 16:19
Asia 2001 / Amnesia [CD1]
Used drive  : HL-DT-STDVDRAM GT30N   Adapter: 0  ID: 1
Read mode               : Secure
Utilize accurate stream : Yes
Defeat audio cache      : Yes
Make use of C2 pointers : No
Read offset correction                      : 103
Overread into Lead-In and Lead-Out          : No
Fill up missing offset samples with silence : Yes
Delete leading and trailing silent blocks   : No
Null samples used in CRC calculations       : Yes
Used interface                              : Native Win32 interface for Win NT & 2000
Used output format              : User Defined Encoder
Selected bitrate                : 1024 kBit/s
Quality                         : High
Add ID3 tag                     : No
Command line compressor         : C:\Program Files\Exact Audio Copy\Flac\flac.exe
Additional command line options : -V -8 -T "Genre=%genre%" -T "Artist=%artist%" -T "Title=%title%" -T "Album=%albumtitle%" -T "Date=%year%" -T "Tracknumber=%tracknr%" -T "Comment=%comment%" %source%
TOC of the extracted CD
     Track |   Start  |  Length  | Start sector | End sector
    ---------------------------------------------------------
        1  |  0:00.00 |  8:10.30 |         0    |    36779
        2  |  8:10.30 |  9:10.05 |     36780    |    78034
        3  | 17:20.35 |  8:23.50 |     78035    |   115809
        4  | 25:44.10 |  8:03.70 |    115810    |   152104
        5  | 33:48.05 |  8:17.44 |    152105    |   189423
        6  | 42:05.49 |  8:40.11 |    189424    |   228434
        7  | 50:45.60 |  7:37.18 |    228435    |   262727
        8  | 58:23.03 |  7:19.48 |    262728    |   295700
        9  | 65:42.51 |  7:05.69 |    295701    |   327644
       10  | 72:48.45 |  6:31.53 |    327645    |   357022
Range status and errors
Selected range
     Filename D:\Laren\ૐ\Asia 2001 - Amnesia [CD1].wav
     Peak level 99.9 %
     Extraction speed 2.3 X
     Range quality 100.0 %
     Test CRC 7C052BE6
     Copy CRC 7C052BE6
     Copy OK
No errors occurred
AccurateRip summary
Track  1  accurately ripped (confidence 3)  [1A405C1E]  (AR v1)
Track  2  accurately ripped (confidence 3)  [32C492D4]  (AR v1)
Track  3  accurately ripped (confidence 3)  [1244B42F]  (AR v1)
Track  4  accurately ripped (confidence 3)  [11FA1C09]  (AR v1)
Track  5  accurately ripped (confidence 3)  [58F9D9FF]  (AR v1)
Track  6  accurately ripped (confidence 3)  [D8E4FA51]  (AR v1)
Track  7  accurately ripped (confidence 3)  [BD838F34]  (AR v1)
Track  8  accurately ripped (confidence 2)  [ECA85272]  (AR v1)
Track  9  accurately ripped (confidence 2)  [39B9D5B7]  (AR v1)
Track 10  accurately ripped (confidence 2)  [DC9B8FEC]  (AR v1)
All tracks accurately ripped
End of status report
==== Log checksum 1BEAEBF658FE6BBCEF9E5C4EE213E2C24006495547E464FC3FD802A54271493A ====

Отчёт auCDtect Task manager:

-----------------------
DON'T MODIFY THIS FILE
-----------------------
PERFORMER: auCDtect Task Manager, ver. 1.6.0 RC1 build 1.6.0.1
Copyright (c) 2008-2010 y-soft. All rights reserved
http://y-soft.org
ANALYZER: auCDtect: CD records authenticity detector, version 0.8.2
Copyright (c) 2004 Oleg Berngardt. All rights reserved.
Copyright (c) 2004 Alexander Djourik. All rights reserved.
FILE: Asia 2001 - Amnesia [CD1].flac
  Size: 550302358 Hash: CAC79F00FA0CB0EAEEA5E69948925306 Accuracy: -m0
  Conclusion: MPEG 95%
  Signature: 108E91B31CD87B1C6592D2C91689607A2F7ABABE

CUE:

REM GENRE "Goa Trance"
REM DATE 2005
REM DISCID 7A12980A
REM COMMENT "ExactAudioCopy v1.0b3"
PERFORMER "Asia 2001"
TITLE "Amnesia [CD1]"
FILE "Asia 2001 - Amnesia [CD1].flac" WAVE
  TRACK 01 AUDIO
    TITLE "Orion (Corcovado Mix)"
    PERFORMER "Asia 2001"
    INDEX 01 00:00:00
  TRACK 02 AUDIO
    TITLE "Vertige (Goa Gil Burning Man Mix)"
    PERFORMER "Asia 2001"
    INDEX 00 08:08:30
    INDEX 01 08:10:30
  TRACK 03 AUDIO
    TITLE "Rakshas"
    PERFORMER "Asia 2001"
    INDEX 00 17:18:35
    INDEX 01 17:20:35
  TRACK 04 AUDIO
    TITLE "Psychadelia"
    PERFORMER "Asia 2001"
    INDEX 00 25:42:10
    INDEX 01 25:44:10
  TRACK 05 AUDIO
    TITLE "Bengali"
    PERFORMER "Asia 2001"
    INDEX 00 33:46:05
    INDEX 01 33:48:05
  TRACK 06 AUDIO
    TITLE "Eolis"
    PERFORMER "Asia 2001"
    INDEX 00 42:03:49
    INDEX 01 42:05:49
  TRACK 07 AUDIO
    TITLE "Carribean night"
    PERFORMER "Asia 2001"
    INDEX 00 50:43:60
    INDEX 01 50:45:60
  TRACK 08 AUDIO
    TITLE "Reykjavik"
    PERFORMER "Asia 2001"
    INDEX 00 58:21:03
    INDEX 01 58:23:03
  TRACK 09 AUDIO
    TITLE "Sherkan"
    PERFORMER "Asia 2001"
    INDEX 00 65:40:51
    INDEX 01 65:42:51
  TRACK 10 AUDIO
    TITLE "Dreamland (Space Cat Remix)"
    PERFORMER "Asia 2001"
    INDEX 00 72:46:45
    INDEX 01 72:48:45

Спектрограмма:

CD2:

Год: 2005
Лейбл:Avatar Records
Каталог:AVA 030
Продолжительность:01:12:20
Треклист:
01. Nomads Of The Future (06:51)
02. Dawn To Dusk (06:21)
03. Strange World (07:53)
04. Life Storm (07:12)
05. Lokayatikas (04:54)
06. Hallu Practical (06:53)
07. 303 Keops (07:45)
08. Juno Transportation (06:17)
09. Lunar Attraction (07:09)
10. Ra (08:28)
11. Epilogue (02:31)

Отчёт ЕАС:

Exact Audio Copy V1.0 beta 3 from 29. August 2011
EAC extraction logfile from 3. November 2012, 18:49
Asia 2001 / Amnesia [CD2]
Used drive  : HL-DT-STDVDRAM GT30N   Adapter: 0  ID: 1
Read mode               : Secure
Utilize accurate stream : Yes
Defeat audio cache      : Yes
Make use of C2 pointers : No
Read offset correction                      : 103
Overread into Lead-In and Lead-Out          : No
Fill up missing offset samples with silence : Yes
Delete leading and trailing silent blocks   : No
Null samples used in CRC calculations       : Yes
Used interface                              : Native Win32 interface for Win NT & 2000
Used output format              : User Defined Encoder
Selected bitrate                : 1024 kBit/s
Quality                         : High
Add ID3 tag                     : No
Command line compressor         : C:\Program Files\Exact Audio Copy\Flac\flac.exe
Additional command line options : -V -8 -T "Genre=%genre%" -T "Artist=%artist%" -T "Title=%title%" -T "Album=%albumtitle%" -T "Date=%year%" -T "Tracknumber=%tracknr%" -T "Comment=%comment%" %source%
TOC of the extracted CD
     Track |   Start  |  Length  | Start sector | End sector
    ---------------------------------------------------------
        1  |  0:00.00 |  6:51.16 |         0    |    30840
        2  |  6:51.16 |  6:21.51 |     30841    |    59466
        3  | 13:12.67 |  7:53.05 |     59467    |    94946
        4  | 21:05.72 |  7:12.66 |     94947    |   127412
        5  | 28:18.63 |  4:54.32 |    127413    |   149494
        6  | 33:13.20 |  6:53.62 |    149495    |   180531
        7  | 40:07.07 |  7:45.48 |    180532    |   215454
        8  | 47:52.55 |  6:17.38 |    215455    |   243767
        9  | 54:10.18 |  7:09.13 |    243768    |   275955
       10  | 61:19.31 |  8:28.39 |    275956    |   314094
       11  | 69:47.70 |  2:31.64 |    314095    |   325483
Range status and errors
Selected range
     Filename D:\Laren\ૐ\Asia 2001 - Amnesia [CD2].wav
     Peak level 100.0 %
     Extraction speed 2.2 X
     Range quality 100.0 %
     Test CRC 6FEA6919
     Copy CRC 6FEA6919
     Copy OK
No errors occurred
AccurateRip summary
Track  1  accurately ripped (confidence 2)  [A32817CD]  (AR v1)
Track  2  accurately ripped (confidence 2)  [76EBA450]  (AR v1)
Track  3  accurately ripped (confidence 2)  [F362249F]  (AR v1)
Track  4  accurately ripped (confidence 2)  [31B488F1]  (AR v1)
Track  5  accurately ripped (confidence 2)  [F68F26F3]  (AR v1)
Track  6  accurately ripped (confidence 2)  [9F07A5D6]  (AR v1)
Track  7  accurately ripped (confidence 2)  [21D29769]  (AR v1)
Track  8  accurately ripped (confidence 2)  [7E265305]  (AR v1)
Track  9  accurately ripped (confidence 2)  [EB835ADB]  (AR v1)
Track 10  accurately ripped (confidence 2)  [B1B72A3A]  (AR v1)
Track 11  accurately ripped (confidence 2)  [FED8B8D5]  (AR v1)
All tracks accurately ripped
End of status report
==== Log checksum BC08C4BC6C216D363F043D49CB7CD26D6C3FF02DCF078A9F208C4BA051D93B54 ====

Отчёт auCDtect Task manager:

-----------------------
DON'T MODIFY THIS FILE
-----------------------
PERFORMER: auCDtect Task Manager, ver. 1.6.0 RC1 build 1.6.0.1
Copyright (c) 2008-2010 y-soft. All rights reserved
http://y-soft.org
ANALYZER: auCDtect: CD records authenticity detector, version 0.8.2
Copyright (c) 2004 Oleg Berngardt. All rights reserved.
Copyright (c) 2004 Alexander Djourik. All rights reserved.
FILE: Asia 2001 - Amnesia [CD2].flac
  Size: 511737564 Hash: CE5DA2F75437F633A2E20BECF09666DF Accuracy: -m0
  Conclusion: MPEG 95%
  Signature: CEA7C504C623179873D596AFFE60FCCEA3D3297E

CUE:

REM GENRE "Goa Trance"
REM DATE 2005
REM DISCID A610F30B
REM COMMENT "ExactAudioCopy v1.0b3"
PERFORMER "Asia 2001"
TITLE "Amnesia [CD2]"
FILE "Asia 2001 - Amnesia [CD2].flac" WAVE
  TRACK 01 AUDIO
    TITLE "Nomads Of The Future"
    PERFORMER "Asia 2001"
    INDEX 01 00:00:00
  TRACK 02 AUDIO
    TITLE "Down To Dusk"
    PERFORMER "Asia 2001"
    INDEX 00 06:49:16
    INDEX 01 06:51:16
  TRACK 03 AUDIO
    TITLE "Strange World"
    PERFORMER "Asia 2001"
    INDEX 00 13:10:67
    INDEX 01 13:12:67
  TRACK 04 AUDIO
    TITLE "Life Storm"
    PERFORMER "Asia 2001"
    INDEX 00 21:03:72
    INDEX 01 21:05:72
  TRACK 05 AUDIO
    TITLE "Lokayatikas"
    PERFORMER "Asia 2001"
    INDEX 00 28:16:63
    INDEX 01 28:18:63
  TRACK 06 AUDIO
    TITLE "Hallu Practical"
    PERFORMER "Asia 2001"
    INDEX 00 33:11:20
    INDEX 01 33:13:20
  TRACK 07 AUDIO
    TITLE "303 Keops"
    PERFORMER "Asia 2001"
    INDEX 00 40:05:07
    INDEX 01 40:07:07
  TRACK 08 AUDIO
    TITLE "Juno Transportation"
    PERFORMER "Asia 2001"
    INDEX 00 47:50:55
    INDEX 01 47:52:55
  TRACK 09 AUDIO
    TITLE "Lunnar Attraction"
    PERFORMER "Asia 2001"
    INDEX 00 54:08:18
    INDEX 01 54:10:18
  TRACK 10 AUDIO
    TITLE "Ra"
    PERFORMER "Asia 2001"
    INDEX 00 61:17:31
    INDEX 01 61:19:31
  TRACK 11 AUDIO
    TITLE "Epilogue (Asia 2001 vs Toires)"
    PERFORMER "Asia 2001"
    INDEX 00 69:45:70
    INDEX 01 69:47:70

Спектрограмма:

Psykadelia

Год: 2015
Лейбл:Suntrip Records
Каталог:SUNCDLE05
Продолжительность:01:14:37
Треклист:
01. Anafuzz (08:45)
02. Orion 2 (08:37)
03. Eolis 2 (11:25)
04. Kalimba (08:27)
05. Replicants (11:22)
06. Sherkan 2 (08:44)
07. Reykjavik (08:59)
08. Flirt Filter (08:22)

Отчёт ЕАС:

Exact Audio Copy V1.0 beta 3 from 29. August 2011
EAC extraction logfile from 5. June 2015, 12:39
Asia 2001 / Psykadelia (Ltd, Reissue)
Used drive  : HL-DT-STDVDRAM GT30N   Adapter: 0  ID: 1
Read mode               : Secure
Utilize accurate stream : Yes
Defeat audio cache      : Yes
Make use of C2 pointers : No
Read offset correction                      : 103
Overread into Lead-In and Lead-Out          : No
Fill up missing offset samples with silence : Yes
Delete leading and trailing silent blocks   : No
Null samples used in CRC calculations       : Yes
Used interface                              : Native Win32 interface for Win NT & 2000
Used output format              : User Defined Encoder
Selected bitrate                : 1024 kBit/s
Quality                         : High
Add ID3 tag                     : No
Command line compressor         : C:\Program Files\Exact Audio Copy\Flac\flac.exe
Additional command line options : -V -8 -T "Date=%year%" -T "Genre=%genre%" -T "COMMENT=SpaceWalker" %source%
TOC of the extracted CD
     Track |   Start  |  Length  | Start sector | End sector
    ---------------------------------------------------------
        1  |  0:00.00 |  8:44.06 |         0    |    39305
        2  |  8:44.06 |  8:36.34 |     39306    |    78039
        3  | 17:20.40 | 11:24.45 |     78040    |   129384
        4  | 28:45.10 |  8:26.61 |    129385    |   167395
        5  | 37:11.71 | 11:21.37 |    167396    |   218507
        6  | 48:33.33 |  8:43.37 |    218508    |   257769
        7  | 57:16.70 |  8:58.56 |    257770    |   298175
        8  | 66:15.51 |  8:21.23 |    298176    |   335773
Range status and errors
Selected range
     Filename D:\Laren\GoaTrance\Asia 2001 - Psykadelia (Ltd, Reissue).wav
     Peak level 98.8 %
     Extraction speed 2.2 X
     Range quality 99.9 %
     Test CRC 6A20C7A9
     Copy CRC 6A20C7A9
     Copy OK
No errors occurred
AccurateRip summary
Track  1  accurately ripped (confidence 2)  [4F52A84D]  (AR v2)
Track  2  accurately ripped (confidence 2)  [E4D52EAB]  (AR v2)
Track  3  accurately ripped (confidence 2)  [4B3475E8]  (AR v2)
Track  4  accurately ripped (confidence 2)  [9CBD22EF]  (AR v2)
Track  5  accurately ripped (confidence 2)  [501E3C4D]  (AR v2)
Track  6  accurately ripped (confidence 2)  [9E650D78]  (AR v2)
Track  7  accurately ripped (confidence 2)  [4578554D]  (AR v2)
Track  8  accurately ripped (confidence 2)  [637D3BF3]  (AR v2)
All tracks accurately ripped
End of status report
==== Log checksum DF61D5E36FB28CF99F0C59180243754B08693985523D30DBF08034FF2DFF1BE4 ====

Отчёт auCDtect Task manager:

-----------------------
DON'T MODIFY THIS FILE
-----------------------
PERFORMER: auCDtect Task Manager, ver. 1.6.0 RC1 build 1.6.0.1
Copyright (c) 2008-2010 y-soft. All rights reserved
http://y-soft.org
ANALYZER: auCDtect: CD records authenticity detector, version 0.8.2
Copyright (c) 2004 Oleg Berngardt. All rights reserved.
Copyright (c) 2004 Alexander Djourik. All rights reserved.
FILE: Asia 2001 - Psykadelia (Ltd, Reissue).flac
  Size: 530281339 Hash: FD9896FBA681F14C03A4AE5FB5A63225 Accuracy: -m0
  Conclusion: CDDA 100%
  Signature: 358C681C426A231304AB3ABA3CDE81B86D0C88B2

CUE:

REM GENRE "Goa Trance"
REM DATE 1997
REM DISCID 6E117C08
REM COMMENT "ExactAudioCopy v1.0b3"
PERFORMER "Asia 2001"
TITLE "Psykadelia (Ltd, Reissue)"
FILE "Asia 2001 - Psykadelia (Ltd, Reissue).flac" WAVE
  TRACK 01 AUDIO
    TITLE "Anafuzz"
    PERFORMER "Asia 2001"
    INDEX 01 00:00:00
  TRACK 02 AUDIO
    TITLE "Orion 2"
    PERFORMER "Asia 2001"
    INDEX 01 08:44:06
  TRACK 03 AUDIO
    TITLE "Eolis 2"
    PERFORMER "Asia 2001"
    INDEX 01 17:20:40
  TRACK 04 AUDIO
    TITLE "Kalimba"
    PERFORMER "Asia 2001"
    INDEX 01 28:45:10
  TRACK 05 AUDIO
    TITLE "Replicants"
    PERFORMER "Asia 2001"
    INDEX 01 37:11:71
  TRACK 06 AUDIO
    TITLE "Sherkan 2"
    PERFORMER "Asia 2001"
    INDEX 01 48:33:33
  TRACK 07 AUDIO
    TITLE "Reykjavik"
    PERFORMER "Asia 2001"
    INDEX 01 57:16:70
  TRACK 08 AUDIO
    TITLE "Flirt Filter"
    PERFORMER "Asia 2001"
    INDEX 01 66:15:51

Спектрограмма:

-Не жилим спасибо. Не забываем голосовать за трекер!!!


Показать сообщения:    

Текущее время: 20-Май 15:33

Часовой пояс: UTC + 3


Вы не можете начинать темы
Вы не можете отвечать на сообщения
Вы не можете редактировать свои сообщения
Вы не можете удалять свои сообщения
Вы не можете голосовать в опросах
Вы не можете прикреплять файлы к сообщениям
Вы не можете скачивать файлы

!ВНИМАНИЕ!
Сайт не предоставляет электронные версии произведений, а занимается лишь коллекционированием и каталогизацией ссылок, присылаемых и публикуемых на форуме нашими читателями. Если вы являетесь правообладателем какого-либо представленного материала и не желаете, чтобы ссылка на него находилась в нашем каталоге, свяжитесь с нами, и мы незамедлительно удалим ее. Файлы для обмена на трекере предоставлены пользователями сайта, и администрация не несет ответственности за их содержание. Просьба не заливать файлы, защищенные авторскими правами, а также файлы нелегального содержания!