۩ ‼ Вы находитесь на Бесплатном торрент-трекере TORRNADA.com ۩ Зарегистрируйтесь для получения полного доступа ко всем функциям сайта ! ۩ После регистрации подпишитесь на нашу рассылку в своём профиле ۩
Auto Web Pinger

 

[Цитировать]

Discovery: Прошлое. Истоки настоящего / How We Got Here [сезон 1 серии 2-12 из 12] (2015) SATRip - Телекомпания: Cry Havoc Productions
Режиссер: Пэтэр Карр / Peter Karr
Жанр: Документальный
Участники: Peter Karr, Johnny Bolton, Kyle Thomas Schmidt
Продолжительность: 11x~00:21:47
Качество видео: SATRip
Перевод: Одноголосый закадровый, профессиональный
Видео: Xvid, 720x400, ~25fps 1800kbps
Аудио: AC3, 2 ch, 48kHz, 192 kbps
Описание:
Наша передача познакомит вас с людьми, сыгравшими решающую роль в истории Америки. Это подлинные гении, пытливые умы, чья работа перевернула весь мир. Сегодня их имена уже стали легендой – но при жизни порой приходилось непросто. Иногда слепой случай, секундное озарение решало судьбу миллионов. В каждой серии мы сможем сами, лично пережить те напряжённые минуты. Мы сможем осознать, как изменился мир благодаря величайшим открытиям – и посмотреть, что бы было сейчас, если бы чуда не произошло. Мы поговорим об эмигрировавших нацистских учёных, об изобретательности Томаса Эдисона, о золотой лихорадке и о новейших средствах связи, изобретённых Сэмюэлем Морзе. Не упустите свой шанс прикоснуться к легендам.

Список серий:

01. Нацисты и полёт на луну / Nazis Get Us to the Moon
Покуда нацистский режим трещал по швам, инженер и учёный Вернер фон Браун при поддержке коллег вёл в Германии проект, который должен был перевернуть ход истории.
02. Вторая мировая. Война машин / Cars Win World War II
Получив возможность встретиться со своим кумиром Томасом Эдисоном и посетить мясоперерабатывающий завод в Чикаго, Генри Форд загорелся идеей, которой суждено было перевернуть мир.
03. От желтого золота к желтой прессе / Gold Makes Headlines
В Калифорнии обнаружили золото, и бедный старатель по имени Джордж Харст отправился попытать счастья. Его усилия оправдались: сын Джорджа стал известным медиамагнатом.
04. Всех уравняли кольты / Colt Makes All Men Equal
Если бы в 1844 году небольшую кучку техасских рейнджеров перестреляли команчи, Америка могла бы и не стать мировой промышленной державой.
05. Джинсы против коммунизма / Denim Defeats Communism
Если бы торговец Джейкоб Дэвис пал в числе жертв золотой лихорадки, мы бы не знали, что такое Ливай Страусс, и медные заклёпки так никогда бы и не были изобретены.
06. Азбука Морзе. Ключ к общению / Morse Code Connects Us All
Если молодой художник Морзе успеет к своей умирающей жене Линкольн не победит в гражданской войне, пленник времён Второй мировой войны не сообщит, что его пытают, а передача сообщений со скоростью света в банках и телефонах так и не появятся.
07. Клара Бартон на страже мира / Clara Barton Saves the World
В 1862 году развернулось сражение при Энтитеме. Посреди поля боя стояла бывшая учительница, отважная Клара Бартон.
08. Глубокая глотка и тайны президента / Deep Throat Exposes the Presidency
Если бы будущий журналист Боб Вудворт не встретился с человеком, известным нам под псевдонимом Глубокая глотка, Уотергейсткий скандал, возможно бы, не состоялся.
09. Как пиво объединило Америку / Beer Unites America
Если бы немецкий иммигрант Адольфус Буш погиб во время жестоких сражений между Севером и Югом, то самого любимого напитка всех американцев, возможно, сейчас бы не существовало.
10. Нефтяная империя Рокфеллера / Rockefeller's Oil Empire
24-летний бухгалтер по имени Джон Д. Рокфеллер решился вложить все свои средства до последнего цента в сомнительную отрасль, которая в те времена лишь начинала зарождаться.
11. Стальной каркас мегаполиса / Steel Builds the Metropolis
Движение на Пенсильванской железной дороге полностью остановилось. То, что сделал после этого Эндрю Карнеги, перевернуло весь мир.
12. Харли на дороге / Harley Hogs the Road
Два механика, не зная, чем заняться, решили установить двигатель на велосипедную раму. Так мир узнал своих новых героев: Уильяма Харли и Артура Дэвидсона.

Mediainfo:

Format                         : AVI
Format/Info                    : Audio Video Interleave
File size                      : 311 MiB
Duration                       : 21mn 46s
Overall bit rate               : 1 995 Kbps
Writing application            : TMPGEnc Video Mastering Works 5 Version. 5.0.6.38
Writing library                : TMPGEnc Video Mastering Works 5 Version. 5.0.6.38
Video
ID                             : 0
Format                         : MPEG-4 Visual
Format profile                 : Advanced Simple@L5
Format settings, BVOP          : 2
Format settings, QPel          : No
Format settings, GMC           : No warppoints
Format settings, Matrix        : Default (H.263)
Muxing mode                    : Packed bitstream
Codec ID                       : XVID
Codec ID/Hint                  : XviD
Duration                       : 21mn 46s
Bit rate                       : 1 796 Kbps
Width                          : 720 pixels
Height                         : 400 pixels
Display aspect ratio           : 16:9
Frame rate                     : 25.000 fps
Color space                    : YUV
Chroma subsampling             : 4:2:0
Bit depth                      : 8 bits
Scan type                      : Progressive
Compression mode               : Lossy
Bits/(Pixel*Frame)             : 0.249
Stream size                    : 280 MiB (90%)
Writing library                : XviD 73
Audio
ID                             : 1
Format                         : AC-3
Format/Info                    : Audio Coding 3
Mode extension                 : CM (complete main)
Format settings, Endianness    : Big
Codec ID                       : 2000
Duration                       : 21mn 46s
Bit rate mode                  : Constant
Bit rate                       : 192 Kbps
Channel(s)                     : 2 channels
Channel positions              : Front: L R
Sampling rate                  : 48.0 KHz
Compression mode               : Lossy
Stream size                    : 29.9 MiB (10%)
Alignment                      : Aligned on interleaves
Interleave, duration           : 480 ms (12.00 video frames)
Скриншоты:

Дополнительные скриншоты:

Не жилим спасибо. Не забываем голосовать за трекер!!!


Показать сообщения:    

Текущее время: 22-Май 22:07

Часовой пояс: UTC + 3


Вы не можете начинать темы
Вы не можете отвечать на сообщения
Вы не можете редактировать свои сообщения
Вы не можете удалять свои сообщения
Вы не можете голосовать в опросах
Вы не можете прикреплять файлы к сообщениям
Вы не можете скачивать файлы

!ВНИМАНИЕ!
Сайт не предоставляет электронные версии произведений, а занимается лишь коллекционированием и каталогизацией ссылок, присылаемых и публикуемых на форуме нашими читателями. Если вы являетесь правообладателем какого-либо представленного материала и не желаете, чтобы ссылка на него находилась в нашем каталоге, свяжитесь с нами, и мы незамедлительно удалим ее. Файлы для обмена на трекере предоставлены пользователями сайта, и администрация не несет ответственности за их содержание. Просьба не заливать файлы, защищенные авторскими правами, а также файлы нелегального содержания!