۩ ‼ Вы находитесь на Бесплатном торрент-трекере TORRNADA.com ۩ Зарегистрируйтесь для получения полного доступа ко всем функциям сайта ! ۩ После регистрации подпишитесь на нашу рассылку в своём профиле ۩
Auto Web Pinger

 

[Цитировать]

Status Quo - Pictures - Live At Montreux (2009) BDRip [H.264/1080р] - Выпущено: США | Eagle Rock Entertainment
Жанр: Rock
Год выпуска: 2009
Исполнитель: Francis Rossi (guitars, vocal), Rick Parfitt (guitars, vocal), Andrew Bown (keyboards, vocal, guitars), John Rhino Edwards (bass, vocal), Matthew Letley (drums, percussion)
Описание:
В 2009, Британская рок-группа Status Quo, дала концерт в Montreux (Швейцария). Группа привезла набор горячих хитов и классических произведений из всех эпох своей карьеры, включая не менее 18 - входивших в разное время в Top 20 UK. Тур "Pictures" - признаётся многими знатоками, как один из лучших в истории коллектива.
Продолжительность: 01:40:29
Качество видео: BDRip (1080р)
Контейнер: MKV
Битрейт видео: ~18,5 Mbps, (16:9), 1920x1080р, 29,970 fps, High Profile 4.1
Видеокодек: MPEG-4 AVC
Аудиокодек: DTS, AC3,
Аудио #1: DTS 5.1, 1509 kbps, 48 kHz, 24 бит
Аудио #2: AC3 5.1, 448 kbps, 48 kHz
Релиз от
Семпл

Треклист:

Треклист:
01. Caroline
02. The Wanderer
03. Rain
04. Don't Drive My Car
05. Mean Girl / Softer Ride
06. Beginning Of The End
07. Is There A Better Way
08. Proposing Medley:
What You're Proposing
Down The Dustpipe
Little Lady
Red Sky
Dear John
Big Fat Mama
09. Pictures Of Matchstick Men / Ice In The Sun
10. The Oriental
11. Creepin' Up On You
12. In My Chair
13. Living On An Island
14. In The Army Now
15. The Killer (Drum Solo)
16. Roll Over Lay Down
17. Down Down
18. Whatever You Want
19. Rockin' All Over The World
20. Junior's Wailing
21. Rock ‘N' Roll Music / Bye Bye Johnny

h.264 log

---[Information] [16.12.2013 10:45:12] x264 [info]: profile Main, level 4.1
---[Information] [16.12.2013 12:16:17] x264 [info]: frame I:1578 Avg QP:13.95 size:239426
---[Information] [16.12.2013 12:16:17] x264 [info]: frame P:54659 Avg QP:16.66 size:112778
---[Information] [16.12.2013 12:16:17] x264 [info]: frame B:124454 Avg QP:17.64 size: 60232
---[Information] [16.12.2013 12:16:17] x264 [info]: consecutive B-frames: 6.3% 8.2% 20.2% 31.0% 16.5% 16.2% 1.6%
---[Information] [16.12.2013 12:16:17] x264 [info]: mb I I16..4: 36.9% 0.0% 63.1%
---[Information] [16.12.2013 12:16:17] x264 [info]: mb P I16..4: 58.1% 0.0% 0.0% P16..4: 40.0% 0.0% 0.0% 0.0% 0.0% skip: 1.9%
---[Information] [16.12.2013 12:16:17] x264 [info]: mb B I16..4: 16.8% 0.0% 0.0% B16..8: 41.4% 0.0% 0.0% direct:27.1% skip:14.8% L0:35.3% L1:38.7% BI:26.0%
---[Information] [16.12.2013 12:16:17] x264 [info]: final ratefactor: 16.27
---[Information] [16.12.2013 12:16:17] x264 [info]: direct mvs spatial:100.0% temporal:0.0%
---[Information] [16.12.2013 12:16:17] x264 [info]: coded y,uvDC,uvAC intra: 50.4% 67.0% 29.3% inter: 37.6% 56.5% 6.9%
---[Information] [16.12.2013 12:16:17] x264 [info]: i16 v,h,dc,p: 42% 23% 24% 11%
---[Information] [16.12.2013 12:16:17] x264 [info]: i4 v,h,dc,ddl,ddr,vr,hd,vl,hu: 29% 19% 15% 6% 7% 7% 5% 6% 6%
---[Information] [16.12.2013 12:16:17] x264 [info]: i8c dc,h,v,p: 43% 22% 29% 7%
---[Information] [16.12.2013 12:16:17] x264 [info]: Weighted P-Frames: Y:11.3% UV:9.6%
---[Information] [16.12.2013 12:16:17] x264 [info]: kb/s:18627.50

MediaInfo

Формат : Matroska
Версия формата : Version 1
Размер файла : 14,4 Гбайт
Продолжительность : 1 ч. 40 м.
Общий поток : 20,5 Мбит/сек
Дата кодирования : UTC 2013-12-16 09:15:07
Программа кодирования : mkvmerge v2.4.2 ('Oh My God') built on Jan 18 2009 17:30:28
Библиотека кодирования : libebml v0.7.7 + libmatroska v0.8.1
Видео
Идентификатор : 1
Формат : AVC
Формат/Информация : Advanced Video Codec
Профиль формата : High@L4.1
Параметр CABAC формата : Да
Параметр ReFrames формата : 4 кадра
Идентификатор кодека : V_MPEG4/ISO/AVC
Продолжительность : 1 ч. 40 м.
Битрейт : 18,5 Мбит/сек
Ширина : 1920 пикселей
Высота : 1080 пикселей
Соотношение сторон : 16:9
Режим частоты кадров : Постоянный
Частота кадров : 29,970 кадров/сек
Цветовое пространство : YUV
Субдискретизация насыщенности : 4:2:0
Битовая глубина : 8 бит
Тип развёртки : Прогрессивная
Бит/(Пиксели*Кадры) : 0.298
Размер потока : 12,7 Гбайт (88%)
Заголовок : torrnada
Библиотека кодирования : x264 core 138 r2358 9e941d1
Настройки программы : cabac=1 / ref=4 / deblock=1:-2:-2 / analyse=0x3:0x113 / me=hex / subme=10 / psy=1 / psy_rd=1.00:0.15 / mixed_ref=1 / me_range=16 / chroma_me=1 / trellis=2 / 8x8dct=1 / cqm=0 / deadzone=21,11 / fast_pskip=0 / chroma_qp_offset=-3 / threads=12 / lookahead_threads=1 / sliced_threads=0 / nr=0 / decimate=1 / interlaced=0 / bluray_compat=0 / constrained_intra=0 / bframes=6 / b_pyramid=2 / b_adapt=2 / b_bias=0 / direct=3 / weightb=1 / open_gop=0 / weightp=2 / keyint=300 / keyint_min=29 / scenecut=40 / intra_refresh=0 / rc_lookahead=40 / rc=2pass / mbtree=1 / bitrate=18500 / ratetol=1.0 / qcomp=0.60 / qpmin=0 / qpmax=69 / qpstep=4 / cplxblur=20.0 / qblur=0.5 / ip_ratio=1.40 / aq=1:1.00
Язык : English
Default : Да
Forced : Нет
Аудио #1
Идентификатор : 2
Формат : DTS
Формат/Информация : Digital Theater Systems
Режим : 16
Параметр Endianness формата : Big
Идентификатор кодека : A_DTS
Продолжительность : 1 ч. 40 м.
Вид битрейта : Постоянный
Битрейт : 1509 Кбит/сек
Каналы : 6 каналов
Расположение каналов : Front: L C R, Side: L R, LFE
Частота : 48,0 КГц
Битовая глубина : 24 бит
Метод сжатия : С потерями
Размер потока : 1,06 Гбайт (7%)
Заголовок : torrnada
Язык : English
Default : Да
Forced : Нет
Аудио #2
Идентификатор : 3
Формат : AC-3
Формат/Информация : Audio Coding 3
Расширение режима : CM (complete main)
Параметр Endianness формата : Big
Идентификатор кодека : A_AC3
Продолжительность : 1 ч. 40 м.
Вид битрейта : Постоянный
Битрейт : 448 Кбит/сек
Каналы : 6 каналов
Расположение каналов : Front: L C R, Side: L R, LFE
Частота : 48,0 КГц
Метод сжатия : С потерями
Размер потока : 322 Мбайт (2%)
Заголовок : torrnada
Язык : English
Default : Нет
Forced : Нет
Меню
00:00:00.000 : :Chapter 01
00:01:28.054 : :Chapter 02
00:09:50.423 : :Chapter 03
00:24:30.569 : :Chapter 04
00:31:11.936 : :Chapter 05
00:41:39.697 : :Chapter 06
00:47:11.295 : :Chapter 07
00:57:53.603 : :Chapter 08
01:06:31.220 : :Chapter 09
01:15:25.487 : :Chapter 10
01:23:52.394 : :Chapter 11
01:31:34.322 : :Chapter 12
01:38:34.275 : :Chapter 13
Скриншоты:
Не жилим спасибо. Не забываем голосовать за трекер!!!


Показать сообщения:    

Текущее время: 24-Май 10:06

Часовой пояс: UTC + 3


Вы не можете начинать темы
Вы не можете отвечать на сообщения
Вы не можете редактировать свои сообщения
Вы не можете удалять свои сообщения
Вы не можете голосовать в опросах
Вы не можете прикреплять файлы к сообщениям
Вы не можете скачивать файлы

!ВНИМАНИЕ!
Сайт не предоставляет электронные версии произведений, а занимается лишь коллекционированием и каталогизацией ссылок, присылаемых и публикуемых на форуме нашими читателями. Если вы являетесь правообладателем какого-либо представленного материала и не желаете, чтобы ссылка на него находилась в нашем каталоге, свяжитесь с нами, и мы незамедлительно удалим ее. Файлы для обмена на трекере предоставлены пользователями сайта, и администрация не несет ответственности за их содержание. Просьба не заливать файлы, защищенные авторскими правами, а также файлы нелегального содержания!