۩ ‼ Вы находитесь на Бесплатном торрент-трекере TORRNADA.com ۩ Зарегистрируйтесь для получения полного доступа ко всем функциям сайта ! ۩ После регистрации подпишитесь на нашу рассылку в своём профиле ۩
Auto Web Pinger

 

[Цитировать]

Mozart - Two Concertos for Flute And Orchestra - Andante In C Major, KV315 (2002) - Дата: May 03, 2002
Жанр: Classical, Concerto, Classical Period, Orchestral
Лейбл: Denon Records
Номер по каталогу: 7803
Продолжительность: 00:51:26
Кодек: FLAC
Битрейт: Lossless
Тип рипа: image +.cue
Wolfgang Amadeus Mozart (1756-1791)
Performer: Andrs Adorjn - flute
Conductor: Hans Stadlmair
Ensemble: Munich Chamber Orchestra

Треклист:
Flute Concerto No. 1 in G major, K. 313 (K. 285c)
01. Allegro maestoso (09:02)
02. Adagio ma non troppo (09:13)
03. Rondeau, Tempo di Menuetto (07:08)
Flute Concerto No. 2 in D major, K. 314 (K. 285d)
04. Allegro aperto (07:45)
05. Adagio ma non troppo (06:48)
06. Rondeau (Allegro) (05:40)
07. Andante for flute & orchestra in C major, K. 315 (K. 285e) (05:51)

ЕАС - log:

Exact Audio Copy V1.0 beta 3 from 29. August 2011
EAC extraction logfile from 16. May 2013, 11:51
Andrs Adorjn / Mozart - Flute Concertos No.1 & No.2 - Andrs Adorjn
Used drive  : TSSTcorpCDDVDW SH-222BB   Adapter: 2  ID: 1
Read mode               : Secure
Utilize accurate stream : Yes
Defeat audio cache      : Yes
Make use of C2 pointers : No
Read offset correction                      : 6
Overread into Lead-In and Lead-Out          : No
Fill up missing offset samples with silence : Yes
Delete leading and trailing silent blocks   : No
Null samples used in CRC calculations       : Yes
Used interface                              : Native Win32 interface for Win NT & 2000
Used output format              : User Defined Encoder
Selected bitrate                : 1024 kBit/s
Quality                         : High
Add ID3 tag                     : No
Command line compressor         : C:\Program Files\Exact Audio Copy\Flac\flac.exe
Additional command line options : -8 -V -T "TITLE=%title%" -T "ARTIST=%artist%" -T "ALBUMARTIST=%albumartist%" -T "ALBUM=%albumtitle%" -T "DATE=%year%" -T "TRACKNUMBER=%tracknr%" -T "TRACKTOTAL=%numtracks%" -T "GENRE=%genre%" -T "COMMENT=%comment%" -T "PERFORMER=%albuminterpret%" -T "COMPOSER=%composer%" %source% -o %dest%
TOC of the extracted CD
     Track |   Start  |  Length  | Start sector | End sector
    ---------------------------------------------------------
        1  |  0:00.00 |  9:01.47 |         0    |    40621
        2  |  9:01.47 |  9:12.45 |     40622    |    82066
        3  | 18:14.17 |  7:07.68 |     82067    |   114159
        4  | 25:22.10 |  7:45.32 |    114160    |   149066
        5  | 33:07.42 |  6:47.55 |    149067    |   179646
        6  | 39:55.22 |  5:39.60 |    179647    |   205131
        7  | 45:35.07 |  5:50.70 |    205132    |   231451
Range status and errors
Selected range
     Filename G:\Ripped general\[2075] Mozart – Flute Concertos No.1 & No.2 – Andrs Adorjn\Mozart - Flute Concertos No.1 & No.2 - Andrs Adorjn.wav
     Peak level 88.1 %
     Extraction speed 5.6 X
     Range quality 100.0 %
     Test CRC EA354ACF
     Copy CRC EA354ACF
     Copy OK
No errors occurred
AccurateRip summary
Track  1  cannot be verified as accurate (confidence 3)  [22829D83], AccurateRip returned [A60E89E7]  (AR v2)
Track  2  cannot be verified as accurate (confidence 3)  [FCC584D7], AccurateRip returned [C2E305FD]  (AR v2)
Track  3  cannot be verified as accurate (confidence 3)  [0629DE72], AccurateRip returned [B6D371A5]  (AR v2)
Track  4  cannot be verified as accurate (confidence 3)  [D5875895], AccurateRip returned [371D53BA]  (AR v2)
Track  5  cannot be verified as accurate (confidence 3)  [E8FCA032], AccurateRip returned [C0F6FA1E]  (AR v2)
Track  6  cannot be verified as accurate (confidence 3)  [01E626D7], AccurateRip returned [15E038C3]  (AR v2)
Track  7  cannot be verified as accurate (confidence 3)  [E344A461], AccurateRip returned [96D040F5]  (AR v2)
No tracks could be verified as accurate
You may have a different pressing from the one(s) in the database
End of status report

auCDtect - log:

-----------------------
DON'T MODIFY THIS FILE
-----------------------
PERFORMER: auCDtect Task Manager, ver. 1.5.1RC6 build 1.5.1.7
Copyright (c) 2008-2010 y-soft. All rights reserved
http://y-soft.org
ANALYZER: auCDtect: CD records authenticity detector, version 0.8.2
Copyright (c) 2004 Oleg Berngardt. All rights reserved.
Copyright (c) 2004 Alexander Djourik. All rights reserved.
FILE: Mozart - Flute Concertos No.1 & No.2 - Andrs Adorjn.flac
  Size: 283462165 Hash: DE8025F1EED840171FAD56D7098FCFB1 Accuracy: -m0
  Conclusion: CDDA 100%
  Signature: F1F6393BE794B7F15A1A185012DE885BC5E29B4D

cue sheet (*.cue):

REM GENRE Classical
REM DATE 1985
REM DISCID 6D0C0E07
REM COMMENT "ExactAudioCopy v1.0b3"
PERFORMER "Andras Adorjan"
TITLE "Mozart - Flute Concertos No.1 & No.2 - Andras Adorjan"
FILE "Mozart - Flute Concertos No.1 & No.2 - Andras Adorjan.flac" WAVE
  TRACK 01 AUDIO
    TITLE "Flute Concerto No. 1 in G major, K. 313 (K. 285c)- Allegro maestoso"
    PERFORMER "Munich Chamber Orchestra & Hans Stadlmair"
    INDEX 01 00:00:00
    INDEX 02 01:01:52
    INDEX 03 07:20:72
  TRACK 02 AUDIO
    TITLE "Flute Concerto No. 1 in G major, K. 313 (K. 285c)- Adagio ma non troppo"
    PERFORMER "Munich Chamber Orchestra & Hans Stadlmair"
    INDEX 00 08:58:62
    INDEX 01 09:01:47
    INDEX 02 10:16:45
    INDEX 03 16:22:42
  TRACK 03 AUDIO
    TITLE "Flute Concerto No. 1 in G major, K. 313 (K. 285c)- Rondeau, Tempo di Menuetto"
    PERFORMER "Munich Chamber Orchestra & Hans Stadlmair"
    INDEX 01 18:14:17
    INDEX 02 19:04:15
    INDEX 03 22:05:32
  TRACK 04 AUDIO
    TITLE "Flute Concerto No. 2 in D major, K. 314 (K. 285d)- Allegro aperto"
    PERFORMER "Munich Chamber Orchestra & Hans Stadlmair"
    INDEX 00 25:16:53
    INDEX 01 25:22:10
    INDEX 02 26:23:35
    INDEX 03 31:07:62
  TRACK 05 AUDIO
    TITLE "Flute Concerto No. 2 in D major, K. 314 (K. 285d)- Adagio ma non troppo"
    PERFORMER "Munich Chamber Orchestra & Hans Stadlmair"
    INDEX 00 33:05:45
    INDEX 01 33:07:42
    INDEX 02 33:47:62
    INDEX 03 38:35:72
  TRACK 06 AUDIO
    TITLE "Flute Concerto No. 2 in D major, K. 314 (K. 285d)- Rondeau (Allegro)"
    PERFORMER "Munich Chamber Orchestra & Hans Stadlmair"
    INDEX 01 39:55:22
    INDEX 02 40:50:07
  TRACK 07 AUDIO
    TITLE "Andante for flute & orchestra in C major, K. 315 (K. 285e)"
    PERFORMER "Munich Chamber Orchestra & Hans Stadlmair"
    INDEX 00 45:29:52
    INDEX 01 45:35:07
    INDEX 02 50:17:47
Не жилим спасибо. Не забываем голосовать за трекер!!!
[torrnada.com].t105820.torrent
Торрент: Зарегистрирован   [ 2015-07-13 20:33 ] · 5E7D9CB4FFDC9884A11C46BC0916601A0D41BA68

Скачать .torrent

Скачать

12 KB

Статус: проверено
Скачан: 46 раз
Размер: 280 MB
Оценка:  - (Голосов: 0) СуперХорошоСреднеТак себеОтстой
Поблагодарили: 1  Спасибо   (список)
Поделится:


Показать сообщения:    

Текущее время: 21-Май 11:41

Часовой пояс: UTC + 3


Вы не можете начинать темы
Вы не можете отвечать на сообщения
Вы не можете редактировать свои сообщения
Вы не можете удалять свои сообщения
Вы не можете голосовать в опросах
Вы не можете прикреплять файлы к сообщениям
Вы можете скачивать файлы

!ВНИМАНИЕ!
Сайт не предоставляет электронные версии произведений, а занимается лишь коллекционированием и каталогизацией ссылок, присылаемых и публикуемых на форуме нашими читателями. Если вы являетесь правообладателем какого-либо представленного материала и не желаете, чтобы ссылка на него находилась в нашем каталоге, свяжитесь с нами, и мы незамедлительно удалим ее. Файлы для обмена на трекере предоставлены пользователями сайта, и администрация не несет ответственности за их содержание. Просьба не заливать файлы, защищенные авторскими правами, а также файлы нелегального содержания!