۩ ‼ Вы находитесь на Бесплатном торрент-трекере TORRNADA.com ۩ Зарегистрируйтесь для получения полного доступа ко всем функциям сайта ! ۩ После регистрации подпишитесь на нашу рассылку в своём профиле ۩
Auto Web Pinger

 

[Цитировать]

Формат: DVDRip, AVI, XviD, AC3
Страна: СССР
Режиссер: Александр Столпер
Жанр: военный, драма, исторический
Продолжительность: 03:10:25
1 серия: 01:36:38
2 серия: 01:33:47
Год выпуска: 1963
В ролях: Кирилл Лавров, Анатолий Папанов, Олег Ефремов, Людмила Крылова, Олег Табаков, Виктор Авдюшко, Борис Чирков, Евгений Самойлов, Евгений Шутов, Михаил Глузский, Михаил Ульянов, Любовь Соколова
Описание: Один из лучших фильмов о войне снят по одноимённому роману Константина Симонова (по его произведениям сделаны также картины: "Случай с Полыниным" (1970), "Жди меня" (1943), "Парень из нашего города" (1942). Роль военного корреспондента Синцова, блистательно исполненная Народным артистом СССР Кириллом Лавровым, стала несосмненной удачей в кинокарьере известного актёра.
"О сорок первом страшном и героическом годе" - сказано в первом кадре картины…
Известие о начале войны, повергнувшее в шок всё население Советского Союза, переданное по радио спустя несколько часов после вероломного нападения фашистской Германии, застаёт корреспондента Ивана Синцова и его жену во время отдыха на юге.
Он возвращается на работу, и редакция отправляет Синцова на фронт. Его задача - писать очерки и репортажи о боевых действиях, жизни солдат, их подвигах и поражениях. Иван становится свидетелем самых тяжёлых событий этой страшной войны - многочисленных отступлений 1941 года. Он пытается понять причину неудач советских воинов.

Рейтинг на КиноПоиске:
Видео#1: 720x416 (1.731:1), 25 fps, Xvid build 46 ~ 2987 kbps avg, 0.39 bit/pixel
Видео#2: 720x400 (16:9), 25 fps, Xvid build 46 ~ 2865 kbps avg, 0.39 bit/pixel
Аудио: 48 kHz, AC3 Dolby Digital, 2/0 (L,R) ch, ~256.00 kbps avg
Доп. информация: Перекодировано с DVD-9

MediaInfoReport

General
Complete name : D:\ZiviaMrtv\ZiviAMrtvi-1.avi
Format : AVI
Format/Info : Audio Video Interleave
Format profile : OpenDML
File size : 2.13 GiB
Duration : 1h 33mn
Overall bit rate : 3 253 Kbps
Writing application : VirtualDubMod 1.5.4.1 (build 2178/release)
Writing library : VirtualDubMod build 2178/release
Video
ID : 0
Format : MPEG-4 Visual
Format profile : Advanced Simple@L5
Format settings, BVOP : No
Format settings, QPel : No
Format settings, GMC : No warppoints
Format settings, Matrix : Custom
Codec ID : XVID
Codec ID/Hint : XviD
Duration : 1h 33mn
Bit rate : 2 988 Kbps
Width : 720 pixels
Height : 416 pixels
Display aspect ratio : 1.731
Frame rate : 25.000 fps
Color space : YUV
Chroma subsampling : 4:2:0
Bit depth : 8 bits
Scan type : Progressive
Compression mode : Lossy
Bits/(Pixel*Frame) : 0.399
Stream size : 1.96 GiB (92%)
Writing library : XviD 1.2.1 (UTC 2008-12-04)
Audio
ID : 1
Format : AC-3
Format/Info : Audio Coding 3
Mode extension : CM (complete main)
Format settings, Endianness : Big
Codec ID : 2000
Duration : 1h 33mn
Bit rate mode : Constant
Bit rate : 256 Kbps
Channel(s) : 2 channels
Channel positions : Front: L R
Sampling rate : 48.0 KHz
Compression mode : Lossy
Stream size : 172 MiB (8%)
Alignment : Split accross interleaves
Interleave, duration : 96 ms (2.40 video frames)
Interleave, preload duration : 96 ms
Language : Russian
General
Complete name : D:\ZiviaMrtv\ZiviaMRTV2.avi
Format : AVI
Format/Info : Audio Video Interleave
Format profile : OpenDML
File size : 2.11 GiB
Duration : 1h 36mn
Overall bit rate : 3 130 Kbps
Writing application : VirtualDubMod 1.5.4.1 (build 2178/release)
Writing library : VirtualDubMod build 2178/release
Video
ID : 0
Format : MPEG-4 Visual
Format profile : Advanced Simple@L5
Format settings, BVOP : No
Format settings, QPel : No
Format settings, GMC : No warppoints
Format settings, Matrix : Custom
Codec ID : XVID
Codec ID/Hint : XviD
Duration : 1h 36mn
Bit rate : 2 865 Kbps
Width : 720 pixels
Height : 400 pixels
Display aspect ratio : 16:9
Frame rate : 25.000 fps
Color space : YUV
Chroma subsampling : 4:2:0
Bit depth : 8 bits
Scan type : Progressive
Compression mode : Lossy
Bits/(Pixel*Frame) : 0.398
Stream size : 1.93 GiB (92%)
Writing library : XviD 1.2.1 (UTC 2008-12-04)
Audio
ID : 1
Format : AC-3
Format/Info : Audio Coding 3
Mode extension : CM (complete main)
Format settings, Endianness : Big
Codec ID : 2000
Duration : 1h 36mn
Bit rate mode : Constant
Bit rate : 256 Kbps
Channel(s) : 2 channels
Channel positions : Front: L R
Sampling rate : 48.0 KHz
Compression mode : Lossy
Stream size : 177 MiB (8%)
Alignment : Split accross interleaves
Interleave, duration : 96 ms (2.40 video frames)
Interleave, preload duration : 96 ms
Language : Russian
Закрыть

Показать скриншоты







Закрыть
Не жилим спасибо. Не забываем голосовать за трекер!!!


Показать сообщения:    

Текущее время: 24-Май 09:56

Часовой пояс: UTC + 3


Вы не можете начинать темы
Вы не можете отвечать на сообщения
Вы не можете редактировать свои сообщения
Вы не можете удалять свои сообщения
Вы не можете голосовать в опросах
Вы не можете прикреплять файлы к сообщениям
Вы не можете скачивать файлы

!ВНИМАНИЕ!
Сайт не предоставляет электронные версии произведений, а занимается лишь коллекционированием и каталогизацией ссылок, присылаемых и публикуемых на форуме нашими читателями. Если вы являетесь правообладателем какого-либо представленного материала и не желаете, чтобы ссылка на него находилась в нашем каталоге, свяжитесь с нами, и мы незамедлительно удалим ее. Файлы для обмена на трекере предоставлены пользователями сайта, и администрация не несет ответственности за их содержание. Просьба не заливать файлы, защищенные авторскими правами, а также файлы нелегального содержания!