۩ ‼ Вы находитесь на Бесплатном торрент-трекере TORRNADA.com ۩ Зарегистрируйтесь для получения полного доступа ко всем функциям сайта ! ۩ После регистрации подпишитесь на нашу рассылку в своём профиле ۩
Auto Web Pinger

 

[Цитировать]

Флэш Гордон / Flash Gordon (1980) BDRip- Производство: США, Великобритания
Жанр: Фантастика, фэнтези, боевик, приключения
Режиссер: Майк Ходжес
Актеры: Тимоти Далтон, Орнелла Мути, Макс фон Сюдов, Сэм Дж. Джонс, Мелоди Андерсон, Тополь, Брайан Блессид, Питер Уингард, Марианджела Мелато, Джон Осборн, Ричард О’Брайэн, Джон Хэллам, Филип Стоун, Сюзанн Даниэль, Уильям Хуткинс, Бобби Браун, Тед Кэрролл, Эдриэнн Кроненберг, Стэнли Лебор, Джон Мортон, Бернелл Таккер, Робби Колтрейн, Питер Дункан, Тесса Хьюит, Винишия Спайсер, Оливер МакГриви, Джон Холлис, Пол Бенталл, Леон Грин, Грем Краузер, Тони Сканнелл, Дэвид Нил
Описание:
Странные энергетические волны сместили Луну с орбиты, вызвав тотальное солнечное затмение на Земле. Жизнь человечества в опасности. Доктор Зарков уговаривает звезду американского футбола Флэша Гордона и прелестную Дэйл совершить вместе с ним отчаянный прыжок в гиперпространство — на планету Монго, откуда исходят разрушительные энергетические волны. Планетой управляет император Минг Беспощадный и его дочь, злобная красавица Аура. У героев есть только одна возможность спасти Землю — уничтожить Минга, объединив враждующих между собой принцев этой далекой планеты…

Продолжительность: 01:51:27
Качество видео: BDRip
Перевод: Профессиональный многоголосый
Видео: XviD, 720x304, 2016 Кбит/с
Аудио:
1. AC3, 6 ch, 384 Кбит/с - русский
2. AC3, 6 ch, 384 Кбит/с - английский

MediaInfo:

Общее
Полное имя : C:\NNM\Флэш Гордон\Flash Gordon 1980 BDRip.avi
Формат : AVI
Формат/Информация : Audio Video Interleave
Профиль формата : OpenDML
Размер файла : 2,18 Гбайт
Продолжительность : 1 ч. 51 м.
Общий поток : 2802 Кбит/сек
Программа кодирования : VirtualDubModRus 1.5.10.2 (build 2542/release)
Библиотека кодирования : VirtualDubMod build 2542/release
Видео
Идентификатор : 0
Формат : MPEG-4 Visual
Профиль формата : Advanced Simple@L5
Параметр BVOP формата : 1
Параметр QPel формата : Нет
Параметр GMC формата : Без точки перехода
Параметр матрицы формата : Default (MPEG)
Идентификатор кодека : XVID
Идентификатор кодека/Подсказка : XviD
Продолжительность : 1 ч. 51 м.
Битрейт : 2016 Кбит/сек
Ширина : 720 пикселей
Высота : 304 пикселя
Соотношение сторон : 2,35:1
Частота кадров : 24,000 кадра/сек
Цветовое пространство : YUV
Субдискретизация насыщенности : 4:2:0
Битовая глубина : 8 бит
Тип развёртки : Прогрессивная
Метод сжатия : С потерями
Бит/(Пиксели*Кадры) : 0.384
Размер потока : 1,57 Гбайт (72%)
Библиотека кодирования : XviD 57
Аудио #1
Идентификатор : 1
Формат : AC-3
Формат/Информация : Audio Coding 3
Расширение режима : CM (complete main)
Идентификатор кодека : 2000
Продолжительность : 1 ч. 51 м.
Вид битрейта : Постоянный
Битрейт : 384 Кбит/сек
Каналы : 6 каналов
Расположение каналов : Front: L C R, Side: L R, LFE
Частота : 48,0 КГц
Битовая глубина : 16 бит
Метод сжатия : С потерями
Размер потока : 306 Мбайт (14%)
Выравнивание : Разделение по промежуткам
Продолжительность промежутка : 42 мс. (1,00 видеокадр)
Время предзагрузки промежутка : 500 мс.
Аудио #2
Идентификатор : 2
Формат : AC-3
Формат/Информация : Audio Coding 3
Расширение режима : CM (complete main)
Идентификатор кодека : 2000
Продолжительность : 1 ч. 51 м.
Вид битрейта : Постоянный
Битрейт : 384 Кбит/сек
Каналы : 6 каналов
Расположение каналов : Front: L C R, Side: L R, LFE
Частота : 48,0 КГц
Битовая глубина : 16 бит
Метод сжатия : С потерями
Размер потока : 306 Мбайт (14%)
Выравнивание : Разделение по промежуткам
Продолжительность промежутка : 42 мс. (1,00 видеокадр)
Время предзагрузки промежутка : 500 мс.
Скриншоты: Не жилим спасибо. Не забываем голосовать за трекер!!!


Показать сообщения:    

Текущее время: 21-Май 10:20

Часовой пояс: UTC + 3


Вы не можете начинать темы
Вы не можете отвечать на сообщения
Вы не можете редактировать свои сообщения
Вы не можете удалять свои сообщения
Вы не можете голосовать в опросах
Вы не можете прикреплять файлы к сообщениям
Вы не можете скачивать файлы

!ВНИМАНИЕ!
Сайт не предоставляет электронные версии произведений, а занимается лишь коллекционированием и каталогизацией ссылок, присылаемых и публикуемых на форуме нашими читателями. Если вы являетесь правообладателем какого-либо представленного материала и не желаете, чтобы ссылка на него находилась в нашем каталоге, свяжитесь с нами, и мы незамедлительно удалим ее. Файлы для обмена на трекере предоставлены пользователями сайта, и администрация не несет ответственности за их содержание. Просьба не заливать файлы, защищенные авторскими правами, а также файлы нелегального содержания!