۩ ‼ Вы находитесь на Бесплатном торрент-трекере TORRNADA.com ۩ Зарегистрируйтесь для получения полного доступа ко всем функциям сайта ! ۩ После регистрации подпишитесь на нашу рассылку в своём профиле ۩
Auto Web Pinger

 

[Цитировать]

Galaxina / Галаксина (1980) DVDRip- Производство: США
Жанр: Фантастика, комедия, приключения
Режиссер: Уильям Сэкс
Актеры: Стефен Махт, Дороти Страттен, Эйвери Шрайбер, Дж.Д. Хинтон, Лайонел Марк Смит, Тэд Хорино, Рональд Найт, Перси Родригез, Херб Капловиц, Анджело Росситто, Нэнси МакКоли, Фред Д. Скотт, Дэвид А. Кокс, Питер Шрум, Сьюзэн Кигер, Мэрилин Джои, Ронда Шир, Бартин Буркетт, Хезер О’Коннелл, Майкл Д. Кастл, Джордж Э. Мэтер, Хью Уорден, Фрэнк Ферро, Дэниэл Винсент Оде, Дарвин Бенжамин, Роберт Л. Гроссман, Майкл Дэнис Брокс, К.С. Даркин, Фредерик С. Газелл, Майкл Маргаргал, Чак МакЭмиш, Джеффри МакГрейл, Стен Партин, Тери Пауэрс, Робин Торелл, Жаклин Джейкобс
Описание:
Полицейский космический корабль Объединенной межгалактической федерации «Бесконечность» бороздит просторы Вселенной. Сержант Тор влюблен в очаровательного андроида Галаксину. Она не умеет говорить и только моргает большими глазами, когда Тор целует ее. Однажды корабль получает приказ отправиться на планету Альта и достать редкий горный минерал «Голубая звезда». Космонавты погружаются в криогенный сон на 27 лет, оставляя Галаксину управлять кораблем. В это время, заинтригованная вниманием со стороны человека, Галаксина перепрограммирует себя и начинает учиться говорить, чтобы быть готовой общаться с Тором, когда он проснется…

Продолжительность: 01:24:10
Качество видео: DVDRip
Перевод: Профессиональный двухголосый
Видео: XviD, 720x304, 3146 Кбит/с
Аудио:
1. AC3, 2 ch, 192 Кбит/с - русский
2. AC3, 6 ch, 448 Кбит/с - английский

MediaInfo:

Общее
Полное имя : C:\NNM\Галаксина\Galaxina 1980 DVDRip.avi
Формат : AVI
Формат/Информация : Audio Video Interleave
Профиль формата : OpenDML
Размер файла : 2,24 Гбайт
Продолжительность : 1 ч. 24 м.
Общий поток : 3804 Кбит/сек
Программа кодирования : FairUse Wizard
Библиотека кодирования : The best and REALLY easy backup tool
Видео
Идентификатор : 0
Формат : MPEG-4 Visual
Профиль формата : Advanced Simple@L5
Параметр BVOP формата : 1
Параметр QPel формата : Нет
Параметр GMC формата : Без точки перехода
Параметр матрицы формата : Default (MPEG)
Режим смешивания : Сжатый битовый поток
Идентификатор кодека : XVID
Идентификатор кодека/Подсказка : XviD
Продолжительность : 1 ч. 24 м.
Битрейт : 3146 Кбит/сек
Ширина : 720 пикселей
Высота : 304 пикселя
Соотношение сторон : 2,35:1
Частота кадров : 23,976 кадра/сек
Цветовое пространство : YUV
Субдискретизация насыщенности : 4:2:0
Битовая глубина : 8 бит
Тип развёртки : Прогрессивная
Метод сжатия : С потерями
Бит/(Пиксели*Кадры) : 0.599
Размер потока : 1,85 Гбайт (83%)
Библиотека кодирования : XviD 1.2.0.dev47 (UTC 2006-11-01)
Аудио #1
Идентификатор : 1
Формат : AC-3
Формат/Информация : Audio Coding 3
Расширение режима : CM (complete main)
Идентификатор кодека : 2000
Продолжительность : 1 ч. 24 м.
Вид битрейта : Постоянный
Битрейт : 192 Кбит/сек
Каналы : 2 канала
Расположение каналов : Front: L R
Частота : 48,0 КГц
Битовая глубина : 16 бит
Метод сжатия : С потерями
Размер потока : 116 Мбайт (5%)
Выравнивание : Разделение по промежуткам
Продолжительность промежутка : 42 мс. (1,00 видеокадр)
Время предзагрузки промежутка : 500 мс.
Аудио #2
Идентификатор : 2
Формат : AC-3
Формат/Информация : Audio Coding 3
Расширение режима : CM (complete main)
Идентификатор кодека : 2000
Продолжительность : 1 ч. 24 м.
Вид битрейта : Постоянный
Битрейт : 448 Кбит/сек
Каналы : 6 каналов
Расположение каналов : Front: L C R, Side: L R, LFE
Частота : 48,0 КГц
Битовая глубина : 16 бит
Метод сжатия : С потерями
Размер потока : 270 Мбайт (12%)
Выравнивание : Разделение по промежуткам
Продолжительность промежутка : 42 мс. (1,00 видеокадр)
Время предзагрузки промежутка : 500 мс.
Скриншоты: Не жилим спасибо. Не забываем голосовать за трекер!!!


Показать сообщения:    

Текущее время: 21-Май 07:35

Часовой пояс: UTC + 3


Вы не можете начинать темы
Вы не можете отвечать на сообщения
Вы не можете редактировать свои сообщения
Вы не можете удалять свои сообщения
Вы не можете голосовать в опросах
Вы не можете прикреплять файлы к сообщениям
Вы не можете скачивать файлы

!ВНИМАНИЕ!
Сайт не предоставляет электронные версии произведений, а занимается лишь коллекционированием и каталогизацией ссылок, присылаемых и публикуемых на форуме нашими читателями. Если вы являетесь правообладателем какого-либо представленного материала и не желаете, чтобы ссылка на него находилась в нашем каталоге, свяжитесь с нами, и мы незамедлительно удалим ее. Файлы для обмена на трекере предоставлены пользователями сайта, и администрация не несет ответственности за их содержание. Просьба не заливать файлы, защищенные авторскими правами, а также файлы нелегального содержания!