۩ ‼ Вы находитесь на Бесплатном торрент-трекере TORRNADA.com ۩ Зарегистрируйтесь для получения полного доступа ко всем функциям сайта ! ۩ После регистрации подпишитесь на нашу рассылку в своём профиле ۩
Auto Web Pinger

 

[Цитировать]

Большие хлопоты из-за маленького мальчика (1967) VHSRip - Производство: СССР, Производство киностудии имени Александра Довженко
Жанр: Детский, Приключения
Режиссер: Александр Муратов, Вениамин Васильковский
Актеры: Петя Шелест, Марина Ловейко, Татьяна Пельтцер, Владимир Алексеенко, Виктор Иванов, Аня Оржешковская, Марина Прокопенко, Игорь Чернов, Алеша Добровольский
Описание:
Пропал пятилетний Боря. К поискам ребенка подключаются работники милиции, следователь Тамара Васильевна и просто сочувствующие жители Киева. Герои побывают на киностудии, в цирке, во Дворце спорта и конечно найдут проказника.

Дата премьеры в России: 9 сентября 1968
Продолжительность: 01:03:08
Качество видео: VHSRip
Видео: Xvid, 640х480, 4:3, 25.000 fps, ~2009.00 kbps
Аудио: MP3, 2 ch, 192 kbps, CBR

Mediainfo:

Общее
Полное имя                               : \Большие хлопоты.avi
Формат                                   : AVI
Формат/Информация                        : Audio Video Interleave
Размер файла                             : 999 Мбайт
Продолжительность                        : 1 ч. 3 м.
Общий поток                              : 2211 Кбит/сек
Библиотека кодирования                   : VirtualDub build 31953/release
Видео
Идентификатор                            : 0
Формат                                   : MPEG-4 Visual
Профиль формата                          : Simple@L5
Параметр BVOP формата                    : Нет
Параметр QPel формата                    : Нет
Параметр GMC формата                     : Без точки перехода
Параметр матрицы формата                 : Default (H.263)
Идентификатор кодека                     : XVID
Идентификатор кодека/Подсказка           : XviD
Продолжительность                        : 1 ч. 3 м.
Битрейт                                  : 2009 Кбит/сек
Ширина                                   : 640 пикселей
Высота                                   : 480 пикселей
Соотношение сторон                       : 4:3
Частота кадров                           : 25,000 кадров/сек
Цветовое пространство                    : YUV
Субдискретизация насыщенности            : 4:2:0
Битовая глубина                          : 8 бит
Тип развёртки                            : Прогрессивная
Метод сжатия                             : С потерями
Бит/(Пиксели*Кадры)                      : 0.262
Размер потока                            : 907 Мбайт (91%)
Библиотека кодирования                   : XviD 64
Аудио
Идентификатор                            : 1
Формат                                   : MPEG Audio
Версия формата                           : Version 1
Профиль формата                          : Layer 3
Режим                                    : Joint stereo
Идентификатор кодека                     : 55
Идентификатор кодека/Подсказка           : MP3
Продолжительность                        : 1 ч. 3 м.
Вид битрейта                             : Постоянный
Битрейт                                  : 192 Кбит/сек
Каналы                                   : 2 канала
Частота                                  : 48,0 КГц
Метод сжатия                             : С потерями
Размер потока                            : 86,7 Мбайт (9%)
Выравнивание                             : Разделение по промежуткам
Продолжительность промежутка             : 40  мс. (1,00 видеокадр)
Время предзагрузки промежутка            : 500  мс.
Скриншоты:
Не жилим спасибо. Не забываем голосовать за трекер!!!


Показать сообщения:    

Текущее время: 21-Май 10:32

Часовой пояс: UTC + 3


Вы не можете начинать темы
Вы не можете отвечать на сообщения
Вы не можете редактировать свои сообщения
Вы не можете удалять свои сообщения
Вы не можете голосовать в опросах
Вы не можете прикреплять файлы к сообщениям
Вы не можете скачивать файлы

!ВНИМАНИЕ!
Сайт не предоставляет электронные версии произведений, а занимается лишь коллекционированием и каталогизацией ссылок, присылаемых и публикуемых на форуме нашими читателями. Если вы являетесь правообладателем какого-либо представленного материала и не желаете, чтобы ссылка на него находилась в нашем каталоге, свяжитесь с нами, и мы незамедлительно удалим ее. Файлы для обмена на трекере предоставлены пользователями сайта, и администрация не несет ответственности за их содержание. Просьба не заливать файлы, защищенные авторскими правами, а также файлы нелегального содержания!