۩ ‼ Вы находитесь на Бесплатном торрент-трекере TORRNADA.com ۩ Зарегистрируйтесь для получения полного доступа ко всем функциям сайта ! ۩ После регистрации подпишитесь на нашу рассылку в своём профиле ۩
Auto Web Pinger

 

[Цитировать]

Бронко Билли / Bronco Billy (1980) DVDRip- Производство: США
Жанр: Приключения, боевик, драма, мелодрама, комедия, вестерн
Режиссер: Клинт Иствуд
Актеры: Клинт Иствуд, Сондра Лок, Джеффри Льюис, Скэтмэн Крозерс, Билл МакКинни, Сэм Боттомс, Дэн Вадис, Сьерра Пешёр, Уолтер Барнс, Вудроу Парфри, Беверли МакКинси, Даг МакГрат, Хэнк Уорден, Уильям Принц, Чак Хикс, Роберт Ф. Хой, Ллойд Нельсон, Джордж Оррисон, Майкл Рейнболд, Тесса Ричард, Элисон Иствуд, Кайл Иствуд, Мерл Хаггард, Джордж Уэндт, Пэм Аббас, Эди Бёрд, Джон Уэсли Эллиотт мл., Джеффресон Джуэлл, Даунин Ли, Дон Маммерт
Описание:
Иствуд исполняет роль меткого стрелка и ловкого наездника по имени «Бронко» Билли МакКоя владельца собственного циркового шоу в стиле «Дикий Запад». Жизнь обходится с героем неласково, и наш ковбой еле сводит концы с концами. Но вот он встречает наследницу огромного состояния, оставшуюся, по воле случая, без денег, вещей и документов. Несмотря на то, что эта девушка не умеет стрелять с завязанными глазами илихо ездить верхом, ей удается изящно заарканить… сердце Бронко Билли!

Продолжительность: 01:51:38
Качество видео: DVDRip
Перевод: Профессиональный многоголосый
Видео: XviD, 720x368, 2352 Кбит/с
Аудио:
1. AC3, 2 ch, 192 Кбит/с - русский
2. AC3, 2 ch, 192 Кбит/с - английский

MediaInfo:

Общее
Полное имя : C:\NNM\Бронко Билли\Bronco Billi 1980 DVDRip.avi
Формат : AVI
Формат/Информация : Audio Video Interleave
Профиль формата : OpenDML
Размер файла : 2,15 Гбайт
Продолжительность : 1 ч. 51 м.
Общий поток : 2754 Кбит/сек
Программа кодирования : FairUse Wizard
Библиотека кодирования : The best and REALLY easy backup tool
Видео
Идентификатор : 0
Формат : MPEG-4 Visual
Профиль формата : Advanced Simple@L5
Параметр BVOP формата : 1
Параметр QPel формата : Нет
Параметр GMC формата : Без точки перехода
Параметр матрицы формата : Default (MPEG)
Режим смешивания : Сжатый битовый поток
Идентификатор кодека : XVID
Идентификатор кодека/Подсказка : XviD
Продолжительность : 1 ч. 51 м.
Битрейт : 2352 Кбит/сек
Ширина : 720 пикселей
Высота : 368 пикселей
Соотношение сторон : 1,957
Частота кадров : 25,000 кадров/сек
Цветовое пространство : YUV
Субдискретизация насыщенности : 4:2:0
Битовая глубина : 8 бит
Тип развёртки : Прогрессивная
Метод сжатия : С потерями
Бит/(Пиксели*Кадры) : 0.355
Размер потока : 1,83 Гбайт (85%)
Библиотека кодирования : XviD 1.2.0.dev47 (UTC 2006-11-01)
Аудио #1
Идентификатор : 1
Формат : AC-3
Формат/Информация : Audio Coding 3
Расширение режима : CM (complete main)
Идентификатор кодека : 2000
Продолжительность : 1 ч. 51 м.
Вид битрейта : Постоянный
Битрейт : 192 Кбит/сек
Каналы : 2 канала
Расположение каналов : Front: L R
Частота : 48,0 КГц
Битовая глубина : 16 бит
Метод сжатия : С потерями
Размер потока : 153 Мбайт (7%)
Выравнивание : Разделение по промежуткам
Продолжительность промежутка : 40 мс. (1,00 видеокадр)
Время предзагрузки промежутка : 500 мс.
Аудио #2
Идентификатор : 2
Формат : AC-3
Формат/Информация : Audio Coding 3
Профиль формата : Dolby Digital
Расширение режима : CM (complete main)
Идентификатор кодека : 2000
Продолжительность : 1 ч. 51 м.
Вид битрейта : Постоянный
Битрейт : 192 Кбит/сек
Каналы : 2 канала
Расположение каналов : Front: L R
Частота : 48,0 КГц
Битовая глубина : 16 бит
Метод сжатия : С потерями
Размер потока : 153 Мбайт (7%)
Выравнивание : Разделение по промежуткам
Продолжительность промежутка : 40 мс. (1,00 видеокадр)
Время предзагрузки промежутка : 500 мс.
Скриншоты: Не жилим спасибо. Не забываем голосовать за трекер!!!


Показать сообщения:    

Текущее время: 22-Май 12:04

Часовой пояс: UTC + 3


Вы не можете начинать темы
Вы не можете отвечать на сообщения
Вы не можете редактировать свои сообщения
Вы не можете удалять свои сообщения
Вы не можете голосовать в опросах
Вы не можете прикреплять файлы к сообщениям
Вы не можете скачивать файлы

!ВНИМАНИЕ!
Сайт не предоставляет электронные версии произведений, а занимается лишь коллекционированием и каталогизацией ссылок, присылаемых и публикуемых на форуме нашими читателями. Если вы являетесь правообладателем какого-либо представленного материала и не желаете, чтобы ссылка на него находилась в нашем каталоге, свяжитесь с нами, и мы незамедлительно удалим ее. Файлы для обмена на трекере предоставлены пользователями сайта, и администрация не несет ответственности за их содержание. Просьба не заливать файлы, защищенные авторскими правами, а также файлы нелегального содержания!