۩ ‼ Вы находитесь на Бесплатном торрент-трекере TORRNADA.com ۩ Зарегистрируйтесь для получения полного доступа ко всем функциям сайта ! ۩ После регистрации подпишитесь на нашу рассылку в своём профиле ۩
Auto Web Pinger

 

[Цитировать]

Парижская любовь / Parisian Love (1925) DVDRip - Производство: США
Жанр: Драма, Криминал, Мелодрама
Режиссер: Луи Дж. Ганье / Louis J. Gasnier
Актеры: Клара Боу, Дональд Кит, Лиллиан Лейтон, Дж. Гордон Расселл, Хэйзел Кинер, Лу Телеген , Жан Де Брик, Отто Матисон, Элис Миллс
Описание:
Мари и Арман, бывшие танцоры парижского кабаре, в паре со своим приятелем-вором нападают ночью на богатого ученого Пьера Марселя. Между Арманом и его подельником происходит ссора - помешав вору убить ученого, Арман теряет сознание от полученного ранее ранения. Из благодарности Марсель забирает истекающего кровью Армана к себе в дом. Подельник гибнет от выстрела полицейского, Мари удается скрыться до прихода полиции.
Далее Марсель выхаживает Армана. Мари под видом горничной проникает в дом ученого, прячется в комнате Армана и видит, как он целует некую Джин, знакомую его благодетеля. Мари ревнует и замышляет план мести. Когда Арман уезжает по делам в Лондон, она прикидывается скромной воспитанницей монастыря, очаровывает Марселя и выходит за него замуж.
Когда Арман возвращается, она не может противостоять своим чувствам и уходит к нему. Марсель вновь проявляет благородство и разводится с Мари, чтобы не мешать счастью влюбленных.

Продолжительность: 01:02:00
Качество видео: DVDRip
Перевод: Отсутствует
Язык субтитров: Русский nigelliri
Вид субтитров: Отдельным файлом
Видео: Xvid, 624х480, 4:3, 23,976 fps, 1477 Kbps
Аудио: AC3, 2 ch, 192 kbps, 48.0 KHz, CBR

Mediainfo:

Общее
Полное имя                               : \Parisian Love (Louis Gasnier,1925) DVDRip\Parisian Love (Louis Gasnier,1925) DVDRip.avi
Формат                                   : AVI
Формат/Информация                        : Audio Video Interleave
Размер файла                             : 745 Мбайт
Продолжительность                        : 1 ч. 2 м.
Общий поток                              : 1679 Кбит/сек
Программа кодирования                    : Lavf52.94.0
Видео
Идентификатор                            : 0
Формат                                   : MPEG-4 Visual
Профиль формата                          : Simple@L3
Параметр BVOP формата                    : Нет
Параметр QPel формата                    : Нет
Параметр GMC формата                     : Без точки перехода
Параметр матрицы формата                 : Default (H.263)
Идентификатор кодека                     : XVID
Идентификатор кодека/Подсказка           : XviD
Продолжительность                        : 1 ч. 2 м.
Битрейт                                  : 1477 Кбит/сек
Ширина                                   : 624 пикселя
Высота                                   : 480 пикселей
Соотношение сторон                       : 4:3
Частота кадров                           : 23,976 кадра/сек
Цветовое пространство                    : YUV
Субдискретизация насыщенности            : 4:2:0
Битовая глубина                          : 8 бит
Тип развёртки                            : Прогрессивная
Метод сжатия                             : С потерями
Бит/(Пиксели*Кадры)                      : 0.206
Размер потока                            : 655 Мбайт (88%)
Библиотека кодирования                   : XviD 1.2.1 (UTC 2008-12-04)
Аудио
Идентификатор                            : 1
Формат                                   : AC-3
Формат/Информация                        : Audio Coding 3
Расширение режима                        : CM (complete main)
Параметр Endianness формата              : Big
Идентификатор кодека                     : 2000
Продолжительность                        : 1 ч. 2 м.
Вид битрейта                             : Постоянный
Битрейт                                  : 192 Кбит/сек
Каналы                                   : 2 канала
Расположение каналов                     : Front: L R
Частота                                  : 48,0 КГц
Битовая глубина                          : 16 бит
Метод сжатия                             : С потерями
Размер потока                            : 85,2 Мбайт (11%)
Выравнивание                             : Соединение по промежуткам
Продолжительность промежутка             : 32  мс. (0,77 видеокадр)
Общее
Полное имя                               : \Parisian Love (Louis Gasnier,1925) DVDRip\Parisian Love (Louis Gasnier,1925) DVDRip.srt
Формат                                   : SubRip
Размер файла                             : 9,67 Кбайт
Текст
Формат                                   : SubRip
Метод сжатия                             : Без потерь
Скриншоты:

Дополнительные скриншоты:

Не жилим спасибо. Не забываем голосовать за трекер!!!


Показать сообщения:    

Текущее время: 21-Май 03:44

Часовой пояс: UTC + 3


Вы не можете начинать темы
Вы не можете отвечать на сообщения
Вы не можете редактировать свои сообщения
Вы не можете удалять свои сообщения
Вы не можете голосовать в опросах
Вы не можете прикреплять файлы к сообщениям
Вы не можете скачивать файлы

!ВНИМАНИЕ!
Сайт не предоставляет электронные версии произведений, а занимается лишь коллекционированием и каталогизацией ссылок, присылаемых и публикуемых на форуме нашими читателями. Если вы являетесь правообладателем какого-либо представленного материала и не желаете, чтобы ссылка на него находилась в нашем каталоге, свяжитесь с нами, и мы незамедлительно удалим ее. Файлы для обмена на трекере предоставлены пользователями сайта, и администрация не несет ответственности за их содержание. Просьба не заливать файлы, защищенные авторскими правами, а также файлы нелегального содержания!