۩ ‼ Вы находитесь на Бесплатном торрент-трекере TORRNADA.com ۩ Зарегистрируйтесь для получения полного доступа ко всем функциям сайта ! ۩ После регистрации подпишитесь на нашу рассылку в своём профиле ۩
Auto Web Pinger

 

[Цитировать]

Рико, Оскар и тени темнее тёмного / Rico, Oskar und die Tieferschatten (2014) BDRip - Производство: Германия | Fox International Productions, Fox International Productions (FIP), Lieblingsfilm
Жанр: Комедия, Приключения, Семейный
Режиссер: Неле Фолльмар
Актеры: Антон Петцольд, Юрий Уинклер, Каролине Херфурт, Аксель Праль, Рональд Церфельд, Урсела Монн, Давид Кросс, Милан Пешель, Катарина Тальбах, Корнелиус Швальм
Описание:
Рико — не совсем обычный ребенок, многие элементарные вещи даются ему с большим трудом. «Необычно одаренный» — называет его любящая мама. «Придурок» — попросту говорит злобный сосед сверху. С таким, как Рико, мало кто хочет дружить, но однажды ему повезло — он познакомился с Оскаром (тоже не совсем обычным мальчиком — вундеркиндом, который на всякий случай никогда не снимает с головы синий мотоциклетный шлем). И ради своего нового друга Рико берется распутывать дело, которое уже полгода ставит в тупик всю полицию Берлина.

Продолжительность: 01:32:26
Качество видео: BDRip
Перевод: Одноголосый закадровый, любительский
Автор перевода: Вячеслав Прошин
Субтитры: Русские (вшитые, отключаемые)
Видео: AVC/H.264, 1280x528 (2.40:1), 23,976 fps, ~5063 kbps, 0.300 bit/ pixel
Аудио №1: 48 kHz, AC3, 6 ch, ~448 kbps, CBR | VO
Аудио №2: 48 kHz, AC3, 6 ch, ~448 kbps, CBR | Немецкий

Mediainfo:

General
Unique ID                      : 208747505114623987668100789015224763829 (0x9D0B4E9D8EBEF299B5C0D16DC48BC5B5)
Complete name                  : C:\Фильмы\Rico.Oska. und.die.Tieferschatten.2014.BDRip.720p.mkv
Format                         : Matroska
Format version                 : Version 2
File size                      : 3.93 GiB
Duration                       : 1h 32mn
Overall bit rate               : 6 080 Kbps
Encoded date                   : UTC 2015-07-07 19:36:14
Writing application            : mkvmerge v5.8.0 ('No Sleep / Pillow') built on Sep  2 2012 15:37:04
Writing library                : libebml v1.2.3 + libmatroska v1.3.0
Video
ID                             : 1
Format                         : AVC
Format/Info                    : Advanced Video Codec
Format profile                 : High@L4.1
Format settings, CABAC         : Yes
Format settings, ReFrames      : 12 frames
Codec ID                       : V_MPEG4/ISO/AVC
Duration                       : 1h 32mn
Bit rate                       : 5 063 Kbps
Width                          : 1 280 pixels
Height                         : 528 pixels
Display aspect ratio           : 2.40:1
Frame rate mode                : Constant
Frame rate                     : 25.000 fps
Original frame rate            : 23.976 fps
Color space                    : YUV
Chroma subsampling             : 4:2:0
Bit depth                      : 8 bits
Scan type                      : Progressive
Bits/(Pixel*Frame)             : 0.300
Stream size                    : 3.27 GiB (83%)
Writing library                : x264 core 142 r2431 ac76440
Encoding settings              : cabac=1 / ref=12 / deblock=1:-1:-1 / analyse=0x3:0x133 / me=umh / subme=10 / psy=1 / psy_rd=1.00:0.15 / mixed_ref=1 / me_range=24 / chroma_me=1 / trellis=2 / 8x8dct=1 / cqm=0 / deadzone=21,11 / fast_pskip=1 / chroma_qp_offset=-3 / threads=6 / lookahead_threads=1 / sliced_threads=0 / nr=0 / decimate=1 / interlaced=0 / bluray_compat=0 / constrained_intra=0 / bframes=8 / b_pyramid=2 / b_adapt=2 / b_bias=0 / direct=3 / weightb=1 / open_gop=0 / weightp=2 / keyint=240 / keyint_min=23 / scenecut=40 / intra_refresh=0 / rc_lookahead=60 / rc=crf / mbtree=1 / crf=16.0 / qcomp=0.60 / qpmin=0 / qpmax=69 / qpstep=4 / vbv_maxrate=40000 / vbv_bufsize=40000 / crf_max=0.0 / nal_hrd=none / filler=0 / ip_ratio=1.40 / aq=1:1.00
Language                       : English
Default                        : Yes
Forced                         : No
Audio #1
ID                             : 2
Format                         : AC-3
Format/Info                    : Audio Coding 3
Mode extension                 : CM (complete main)
Format settings, Endianness    : Big
Codec ID                       : A_AC3
Duration                       : 1h 32mn
Bit rate mode                  : Constant
Bit rate                       : 448 Kbps
Channel(s)                     : 6 channels
Channel positions              : Front: L C R, Side: L R, LFE
Sampling rate                  : 48.0 KHz
Bit depth                      : 16 bits
Compression mode               : Lossy
Stream size                    : 296 MiB (7%)
Language                       : Russian
Default                        : Yes
Forced                         : No
Audio #2
ID                             : 3
Format                         : AC-3
Format/Info                    : Audio Coding 3
Mode extension                 : CM (complete main)
Format settings, Endianness    : Big
Codec ID                       : A_AC3
Duration                       : 1h 32mn
Bit rate mode                  : Constant
Bit rate                       : 448 Kbps
Channel(s)                     : 6 channels
Channel positions              : Front: L C R, Side: L R, LFE
Sampling rate                  : 48.0 KHz
Bit depth                      : 16 bits
Compression mode               : Lossy
Stream size                    : 296 MiB (7%)
Language                       : German
Default                        : No
Forced                         : No
Text
ID                             : 4
Format                         : UTF-8
Codec ID                       : S_TEXT/UTF8
Codec ID/Info                  : UTF-8 Plain Text
Language                       : Russian
Default                        : No
Forced                         : No
Скриншоты:
Не жилим спасибо. Не забываем голосовать за трекер!!!


Показать сообщения:    

Текущее время: 22-Май 13:46

Часовой пояс: UTC + 3


Вы не можете начинать темы
Вы не можете отвечать на сообщения
Вы не можете редактировать свои сообщения
Вы не можете удалять свои сообщения
Вы не можете голосовать в опросах
Вы не можете прикреплять файлы к сообщениям
Вы не можете скачивать файлы

!ВНИМАНИЕ!
Сайт не предоставляет электронные версии произведений, а занимается лишь коллекционированием и каталогизацией ссылок, присылаемых и публикуемых на форуме нашими читателями. Если вы являетесь правообладателем какого-либо представленного материала и не желаете, чтобы ссылка на него находилась в нашем каталоге, свяжитесь с нами, и мы незамедлительно удалим ее. Файлы для обмена на трекере предоставлены пользователями сайта, и администрация не несет ответственности за их содержание. Просьба не заливать файлы, защищенные авторскими правами, а также файлы нелегального содержания!