۩ ‼ Вы находитесь на Бесплатном торрент-трекере TORRNADA.com ۩ Зарегистрируйтесь для получения полного доступа ко всем функциям сайта ! ۩ После регистрации подпишитесь на нашу рассылку в своём профиле ۩
Auto Web Pinger

 

[Цитировать]

Территория заблуждений с Игорем Прокопенко (2015.07.10) SATRip- Телекомпания: РЕН
Жанр: Документальный
Описание:
Каждый день приносит научные сенсации, которые противоречат нашим привычным знаниям. Невероятные находки археологов опровергают учебники истории. Новейшие открытия астрономов начисто ломают знания о жизни Вселенной. А последние исследования медиков - рушат, казалось бы, незыблемые истины даже о жизни и смерти. В результате даже ученые все чаще приходят к неутешительному выводу - знания, накопленные человечеством на сегодняшний день - не более, чем территория заблуждений.
Продолжительность: 01:35:40
Качество видео: SATRip
Видео: MPEG4, XviD, 704x448 (1.571), 25.000 fps, 1 800 Kbps (0.228 bit/pixel)
Аудио: MP3, 48.0 KHz, 2 ch, 128 Kbps, CBR

Mediainfo:

Формат                                   : AVI
Формат/Информация                        : Audio Video Interleave
Размер файла                             : 1,29 Гбайт
Продолжительность                        : 1 ч. 35 м.
Общий поток                              : 1937 Кбит/сек
Библиотека кодирования                   : VirtualDub build 32817/release
Видео
Идентификатор                            : 0
Формат                                   : MPEG-4 Visual
Профиль формата                          : Advanced Simple@L5
Параметр BVOP формата                    : 2
Параметр QPel формата                    : Нет
Параметр GMC формата                     : Без точки перехода
Параметр матрицы формата                 : Default (MPEG)
Идентификатор кодека                     : XVID
Идентификатор кодека/Подсказка           : XviD
Продолжительность                        : 1 ч. 35 м.
Битрейт                                  : 1800 Кбит/сек
Ширина                                   : 704 пикселя
Высота                                   : 448 пикселей
Соотношение сторон                       : 16:10
Частота кадров                           : 25,000 кадров/сек
Цветовое пространство                    : YUV
Субдискретизация насыщенности            : 4:2:0
Битовая глубина                          : 8 бит
Тип развёртки                            : Прогрессивная
Метод сжатия                             : С потерями
Бит/(Пиксели*Кадры)                      : 0.228
Размер потока                            : 1,20 Гбайт (93%)
Библиотека кодирования                   : XviD 1.2.1 (UTC 2008-12-04)
Аудио
Идентификатор                            : 1
Формат                                   : MPEG Audio
Версия формата                           : Version 1
Профиль формата                          : Layer 3
Режим                                    : Joint stereo
Расширение режима                        : MS Stereo
Идентификатор кодека                     : 55
Идентификатор кодека/Подсказка           : MP3
Продолжительность                        : 1 ч. 35 м.
Вид битрейта                             : Постоянный
Битрейт                                  : 128 Кбит/сек
Каналы                                   : 2 канала
Частота                                  : 48,0 КГц
Метод сжатия                             : С потерями
Размер потока                            : 87,6 Мбайт (7%)
Выравнивание                             : Разделение по промежуткам
Продолжительность промежутка             : 40  мс. (1,00 видеокадр)
Время предзагрузки промежутка            : 500  мс.

В выпуске:

Наконец-то, в США началась президентская гонка. Известная всем Хиллари Клинтон, которая когда-то пожимала руку Каддафи, а потом на весь мир смеялась, наблюдая видео, где его насилуют, теперь присоединился и Джеб Буш, брат Джорджа Буша, того самого, который путал Иран с Ираком, наговорил за свою президентскую карьеру кучу глупостей, которые создали ему репутацию «простого техасского парня».
Скриншоты: Не жилим спасибо. Не забываем голосовать за трекер!!!


Показать сообщения:    

Текущее время: 21-Май 03:34

Часовой пояс: UTC + 3


Вы не можете начинать темы
Вы не можете отвечать на сообщения
Вы не можете редактировать свои сообщения
Вы не можете удалять свои сообщения
Вы не можете голосовать в опросах
Вы не можете прикреплять файлы к сообщениям
Вы не можете скачивать файлы

!ВНИМАНИЕ!
Сайт не предоставляет электронные версии произведений, а занимается лишь коллекционированием и каталогизацией ссылок, присылаемых и публикуемых на форуме нашими читателями. Если вы являетесь правообладателем какого-либо представленного материала и не желаете, чтобы ссылка на него находилась в нашем каталоге, свяжитесь с нами, и мы незамедлительно удалим ее. Файлы для обмена на трекере предоставлены пользователями сайта, и администрация не несет ответственности за их содержание. Просьба не заливать файлы, защищенные авторскими правами, а также файлы нелегального содержания!