۩ ‼ Вы находитесь на Бесплатном торрент-трекере TORRNADA.com ۩ Зарегистрируйтесь для получения полного доступа ко всем функциям сайта ! ۩ После регистрации подпишитесь на нашу рассылку в своём профиле ۩
Auto Web Pinger

 

[Цитировать]

Ментовские войны (2004-2014) SATRip (сезон 1-8, серии 1-116 из 116 + эпилоги + послесловие) - Производство: Россия, Студия "Панорама", Новый Русский Сериал
Жанр: драма, мелодрама, криминал, детектив
Режиссер: Егор Абросимов, Алексей Богданов, Алан Дзоциев, Сергей Раевский
Актеры: Александр Устюгов, Алексей Завьялов, Рашит Билялов, Вадим Бурлаков, Наталья Бурмистрова, Игорь Волков, Дмитрий Быковский-Ромашов, Ринат Ибрагимов, Никита Куликов, Александр Лисицин, Владислав Резник, Анатолий Узденский, Всеволод Цурило, Роман Громадский, Юрий Елагин, Руслан Ибрагимов, Марина Игнатова, Станислав Концевич, Владимир Матвеев, Ирина Крецу, Станислав Никольский, Леонид Осокин
Описание:
Сериал «Ментовские войны» повествует о жизни и работе начальника «убойного» отдела, а позже начальника службы безопасности крупных бизнес-структур Романа Шилова, ведущего борьбу с произволом в рядах сотрудников МВД. Главные герои сериала – сотрудники правоохранительных органов Роман Шилов и Николай Арнаутов – настоящие профессионалы. В любой момент они готовы пожертвовать личной безопасностью и встать на стражу общественного спокойствия и правопорядка.

Продолжительность: ~00:45:00 серия
Качество видео: SATRip
Видео: XviD, 720x400 (16:9), ~1472 kb/s
Аудио: MP3/АС3, 48,0 KHz, 2 ch, 192 kb/s

MediaInfo:

Формат : AVI
Формат/Информация : Audio Video Interleave
Размер файла : 551 Мбайт
Продолжительность : 45 м.
Общий поток : 1674 Кбит/сек
Видео
Идентификатор : 0
Формат : MPEG-4 Visual
Профиль формата : Advanced Simple@L5
Параметр BVOP формата : 1
Параметр QPel формата : Нет
Параметр GMC формата : Без точки перехода
Параметр матрицы формата : Default (H.263)
Режим смешивания : Сжатый битовый поток
Идентификатор кодека : XVID
Идентификатор кодека/Подсказка : XviD
Продолжительность : 45 м.
Битрейт : 1472 Кбит/сек
Ширина : 720 пикселей
Высота : 400 пикселей
Соотношение сторон : 16:9
Частота кадров : 25,000 кадров/сек
Цветовое пространство : YUV
Субдискретизация насыщенности : 4:2:0
Битовая глубина : 8 бит
Тип развёртки : Прогрессивная
Метод сжатия : С потерями
Бит/(Пиксели*Кадры) : 0.205
Размер потока : 484 Мбайт (88%)
Библиотека кодирования : XviD 64
Аудио
Идентификатор : 1
Формат : AC-3
Формат/Информация : Audio Coding 3
Расширение режима : CM (complete main)
Параметр Endianness формата : Big
Идентификатор кодека : 2000
Продолжительность : 45 м.
Вид битрейта : Постоянный
Битрейт : 192 Кбит/сек
Каналы : 2 канала
Расположение каналов : Front: L R
Частота : 48,0 КГц
Метод сжатия : С потерями
Размер потока : 63,1 Мбайт (11%)
Выравнивание : Соединение по промежуткам
Продолжительность промежутка : 40 мс. (1,00 видеокадр)
Время предзагрузки промежутка : 512 мс.
Скриншоты:
Не жилим спасибо. Не забываем голосовать за трекер!!!


Показать сообщения:    

Текущее время: 21-Май 09:36

Часовой пояс: UTC + 3


Вы не можете начинать темы
Вы не можете отвечать на сообщения
Вы не можете редактировать свои сообщения
Вы не можете удалять свои сообщения
Вы не можете голосовать в опросах
Вы не можете прикреплять файлы к сообщениям
Вы не можете скачивать файлы

!ВНИМАНИЕ!
Сайт не предоставляет электронные версии произведений, а занимается лишь коллекционированием и каталогизацией ссылок, присылаемых и публикуемых на форуме нашими читателями. Если вы являетесь правообладателем какого-либо представленного материала и не желаете, чтобы ссылка на него находилась в нашем каталоге, свяжитесь с нами, и мы незамедлительно удалим ее. Файлы для обмена на трекере предоставлены пользователями сайта, и администрация не несет ответственности за их содержание. Просьба не заливать файлы, защищенные авторскими правами, а также файлы нелегального содержания!