۩ ‼ Вы находитесь на Бесплатном торрент-трекере TORRNADA.com ۩ Зарегистрируйтесь для получения полного доступа ко всем функциям сайта ! ۩ После регистрации подпишитесь на нашу рассылку в своём профиле ۩
Auto Web Pinger

 

[Цитировать]

Последние рыцари / Last Knights (2014) BDRip [576p] iPad
«Битва за честь, война за справедливость»
- Год выпуска: 2014
Производство: Чехия, Корея Южная
Жанр: Драма, боевик, приключения
Продолжительность: 01:49:53
Перевод: Дублированный (Лицензия)
Cубтитры: Английские
Режиссер: Казуаки Кирия
Актеры: Клайв Оуэн, Морган Фриман, Клифф Кёртис, Аксель Хенни, Цуёси Ихара, Шоре Агдашлу, Пейман Моаади, Ан Сон Ги, Пак Си Ен, Дэниэл Адегбойега
Мировая премьера: 3 апреля 2015

Описание: Средневековье, междоусобные распри раздирают королевство на мелкие анклавы, их правители наращивают собственные военные силы. Лишь истинный благородный воин — Король Барток — видит силу и будущее в единстве. При поддержке своих преданных и закаленных в сражениях рыцарей, он способен объединить земли. Но коварные враги уничтожают короля. И тогда его верные рыцари во имя высшей справедливости и отмщения чести своего господина выступают на штурм самой защищенной крепости королевства. Они готовятся взять реванш ценою собственных жизней.-Качество: BDRip
Контейнер: M4V
Видео: H.264, 1024x432, 2.40:1, 2 200 Kbps, 23.976 fps
Аудио 1: Русский/Дублированный (Лицензия), AAC / 2.0 / 158 Kbps / 48.0 KHz
Аудио 2: Английский/Оригинальная дорожка , AAC / 2.0 / 158 Kbps / 48.0 KHz
Язык субтитров: Английский
Вид субтитров: Вшитые (полные, отключаемые)-

iTunes Meta Tags

Sort Name: Last Knights
XID: Apple:vendor_id:2015-715091
contentID: 973278776
Screenwriters: Майкл Конивс, Дав Суссман
Producers: Люси Ким, Бэрри Брукер, Чип Диггинс
Director: Казуаки Кирия
Cast: Клайв Оуэн, Морган Фриман, Ан Сон Ги, Пак Си Ен, Аксель Хенни, Дэниэл Адегбойега, Шоре Агдашлу, Джеймс Бэбсон, Павел Бездек, Дэниэл Флейшер-Браун
Studio: Lionsgate
Rating: 11
Long Description: Средневековье, междоусобные распри раздирают королевство на мелкие анклавы, их правители наращивают собственные военные силы. Лишь истинный благородный воин - Король Барток - видит силу и будущее в единстве. При поддержке своих преданных и закаленных в сражениях рыцарей, он способен объединить земли. Но коварные враги уничтожают короля. И тогда его верные рыцари во имя высшей справедливости и отмщения чести своего господина выступают на штурм самой защищенной крепости королевства. Они готовятся взять реванш ценою собственных жизней.
Description: Средневековье, междоусобные распри раздирают королевство на мелкие анклавы, их правители наращивают собственные военные силы. Лишь истинный благородный воин - Король Барток - видит силу и будущее в единстве.
Release Date: 2015-04-03T08:00:00Z
Genre: Action & Adventure
Artist: Kazuaki Kiriya
Name: Last Knights

MediaInfo

General
Complete name                            : /Users/imac/HandBrake/Last.Knights.(SD).(pk).m4v
Format                                   : MPEG-4
Codec ID                                 : M4V
File size                                : 1.94 GiB
Duration                                 : 1h 49mn
Overall bit rate mode                    : Variable
Overall bit rate                         : 2 523 Kbps
Movie name                               : Last Knights
Performer                                : Kazuaki Kiriya
Genre                                    : Action & Adventure
Recorded date                            : UTC 2015-04-03 08:00:00
Encoded date                             : UTC 2015-06-13 12:21:04
Tagged date                              : UTC 2015-06-13 12:21:59
Cover                                    : Yes
sonm                                     : Last Knights
desc                                     : Средневековье, междоусобные распри раздирают королевство на мелкие анклавы, их правители наращивают собственные военные силы. Лишь истинный благородный воин - Король Барток - видит силу и будущее в единстве.
ldes                                     : Средневековье, междоусобные распри раздирают королевство на мелкие анклавы, их правители наращивают собственные военные силы. Лишь истинный благородный воин - Король Барток - видит силу и будущее в единстве. При поддержке своих преданных и закаленных в сражениях рыцарей, он способен объединить земли. Но коварные враги уничтожают короля. И тогда его верные рыцари во имя высшей справедливости и отмщения чести своего господина выступают на штурм самой защищенной крепости королевства. Они готовятся взять реванш ценою собственных жизней.
stik                                     : 9
rtng                                     : 0
cnID                                     : 973278776
xid                                      : Apple:vendor_id:2015-715091
iTunEXTC                                 : mpaa|R|400|
iTunMOVI                                 :  /  /  /  /   cast /   /     /       name /       Клайв Оуэн /     /     /       name /       Морган Фриман /     /     /       name /       Ан Сон Ги /     /     /       name /       Пак Си Ен /     /     /       name /       Аксель Хенни /     /     /       name /       Дэниэл Адегбойега /     /     /       name /       Шоре Агдашлу /     /     /       name /       Джеймс Бэбсон /     /     /       name /       Павел Бездек /     /     /       name /       Дэниэл Флейшер-Браун /     /   /   directors /   /     /       name /       Казуаки Кирия /     /   /   producers /   /     /       name /       Люси Ким /     /     /       name /       Бэрри Брукер /     /     /       name /       Чип Диггинс /     /   /   screenwriters /   /     /       name /       Майкл Конивс /     /     /       name /       Дав Суссман /     /   /   studio /   Lionsgate /  /
Video #1
ID                                       : 1
Format                                   : AVC
Format/Info                              : Advanced Video Codec
Format profile                           : High@L3.1
Format settings, CABAC                   : Yes
Format settings, ReFrames                : 9 frames
Codec ID                                 : avc1
Codec ID/Info                            : Advanced Video Coding
Duration                                 : 1h 49mn
Bit rate mode                            : Variable
Bit rate                                 : 2 200 Kbps
Width                                    : 1 024 pixels
Height                                   : 432 pixels
Display aspect ratio                     : 2.40:1
Frame rate mode                          : Variable
Frame rate                               : 23.976 fps
Minimum frame rate                       : 17.026 fps
Maximum frame rate                       : 23.981 fps
Color space                              : YUV
Chroma subsampling                       : 4:2:0
Bit depth                                : 8 bits
Scan type                                : Progressive
Bits/(Pixel*Frame)                       : 0.207
Stream size                              : 1.69 GiB (87%)
Writing library                          : x264 core 142 r2479 dd79a61
Encoding settings                        : cabac=1 / ref=9 / deblock=1:0:0 / analyse=0x3:0x113 / me=umh / subme=9 / psy=1 / psy_rd=1.00:0.00 / mixed_ref=1 / me_range=32 / chroma_me=1 / trellis=1 / 8x8dct=1 / cqm=0 / deadzone=21,11 / fast_pskip=1 / chroma_qp_offset=-2 / threads=36 / lookahead_threads=3 / sliced_threads=0 / nr=0 / decimate=1 / interlaced=0 / bluray_compat=0 / constrained_intra=0 / bframes=6 / b_pyramid=2 / b_adapt=2 / b_bias=0 / direct=1 / weightb=1 / open_gop=0 / weightp=2 / keyint=240 / keyint_min=24 / scenecut=40 / intra_refresh=0 / rc_lookahead=40 / rc=2pass / mbtree=1 / bitrate=2200 / ratetol=1.0 / qcomp=0.60 / qpmin=0 / qpmax=69 / qpstep=4 / cplxblur=20.0 / qblur=0.5 / ip_ratio=1.40 / aq=1:1.00
Language                                 : English
Encoded date                             : UTC 2015-06-13 12:21:04
Tagged date                              : UTC 2015-06-13 12:21:09
Color primaries                          : BT.709-5, BT.1361, IEC 61966-2-4, SMPTE RP177
Transfer characteristics                 : BT.709-5, BT.1361
Matrix coefficients                      : BT.709-5, BT.1361, IEC 61966-2-4 709, SMPTE RP177
Video #2
ID                                       : 7
Format                                   : JPEG
Codec ID                                 : jpeg
Duration                                 : 1h 49mn
Bit rate mode                            : Variable
Bit rate                                 : 344 bps
Width                                    : 640 pixels
Height                                   : 270 pixels
Display aspect ratio                     : 2.40:1
Frame rate mode                          : Variable
Frame rate                               : 0.002 fps
Minimum frame rate                       : 0.001 fps
Maximum frame rate                       : 0.005 fps
Color space                              : YUV
Chroma subsampling                       : 4:2:0
Bit depth                                : 8 bits
Compression mode                         : Lossy
Bits/(Pixel*Frame)                       : 0.995
Stream size                              : 252 KiB (0%)
Language                                 : English
Encoded date                             : UTC 2015-06-13 12:21:13
Tagged date                              : UTC 2015-06-13 12:21:14
Audio #1
ID                                       : 2
Format                                   : AAC
Format/Info                              : Advanced Audio Codec
Format profile                           : LC
Codec ID                                 : 40
Duration                                 : 1h 49mn
Bit rate mode                            : Variable
Bit rate                                 : 158 Kbps
Maximum bit rate                         : 232 Kbps
Channel(s)                               : 2 channels
Channel positions                        : Front: L R
Sampling rate                            : 48.0 KHz
Compression mode                         : Lossy
Stream size                              : 124 MiB (6%)
Language                                 : Russian
Encoded date                             : UTC 2015-06-13 12:21:04
Tagged date                              : UTC 2015-06-13 12:21:11
Audio #2
ID                                       : 3
Format                                   : AAC
Format/Info                              : Advanced Audio Codec
Format profile                           : LC
Codec ID                                 : 40
Duration                                 : 1h 49mn
Bit rate mode                            : Variable
Bit rate                                 : 158 Kbps
Maximum bit rate                         : 233 Kbps
Channel(s)                               : 2 channels
Channel positions                        : Front: L R
Sampling rate                            : 48.0 KHz
Compression mode                         : Lossy
Stream size                              : 124 MiB (6%)
Language                                 : English
Encoded date                             : UTC 2015-06-13 12:21:04
Tagged date                              : UTC 2015-06-13 12:21:11
Text #1
ID                                       : 4
Format                                   : Timed text
Muxing mode                              : sbtl
Codec ID                                 : tx3g
Duration                                 : 1h 42mn
Bit rate mode                            : Variable
Bit rate                                 : 43 bps
Stream size                              : 31.9 KiB (0%)
Language                                 : English
Encoded date                             : UTC 2015-06-13 12:21:04
Tagged date                              : UTC 2015-06-13 12:21:11
Text #2
ID                                       : 5
Format                                   : Timed text
Muxing mode                              : sbtl
Codec ID                                 : tx3g
Duration                                 : 1h 42mn
Bit rate mode                            : Variable
Bit rate                                 : 47 bps
Stream size                              : 34.8 KiB (0%)
Language                                 : English
Encoded date                             : UTC 2015-06-13 12:21:04
Tagged date                              : UTC 2015-06-13 12:21:11
Text #3
ID                                       : 6
Format                                   : Apple text
Codec ID                                 : text
Duration                                 : 1h 49mn
Bit rate mode                            : Variable
Bit rate                                 : 0 bps
Stream size                              : 279 Bytes (0%)
Language                                 : English
Encoded date                             : UTC 2015-06-13 12:21:11
Tagged date                              : UTC 2015-06-13 12:21:11
Menu
00:00:00.000                             : Chapter 1
00:08:56.870                             : Chapter 2
00:16:09.760                             : Chapter 3
00:24:09.406                             : Chapter 4
00:34:43.999                             : Chapter 5
00:41:42.166                             : Chapter 6
00:45:09.916                             : Chapter 7
00:54:38.650                             : Chapter 8
01:05:11.741                             : Chapter 9
01:14:42.687                             : Chapter 10
01:23:39.181                             : Chapter 11
01:34:17.652                             : Chapter 12

x264 лог

x264 [info]: frame I:1774  Avg QP:10.52  size: 72785
x264 [info]: frame P:36710 Avg QP:13.17  size: 22262
x264 [info]: frame B:119627 Avg QP:15.13  size:  7245
x264 [info]: consecutive B-frames:  3.2%  5.5%  9.6% 14.9% 18.4% 38.1% 10.3%
x264 [info]: mb I  I16..4: 11.6% 70.1% 18.3%
x264 [info]: mb P  I16..4:  3.0% 13.2%  2.5%  P16..4: 32.1% 24.3% 14.2%  0.0%  0.0%    skip:10.7%
x264 [info]: mb B  I16..4:  0.4%  1.5%  0.2%  B16..8: 35.3% 13.8%  3.5%  direct: 6.9%  skip:38.4%  L0:45.9% L1:44.2% BI: 9.8%
x264 [info]: 8x8 transform intra:70.8% inter:65.3%
x264 [info]: coded y,uvDC,uvAC intra: 78.3% 66.7% 48.9% inter: 29.7% 22.6% 2.8%
x264 [info]: i16 v,h,dc,p: 40% 12% 10% 38%
x264 [info]: i8 v,h,dc,ddl,ddr,vr,hd,vl,hu: 11%  8% 11%  9% 12% 12% 12% 12% 13%
x264 [info]: i4 v,h,dc,ddl,ddr,vr,hd,vl,hu: 10%  7%  6% 10% 15% 14% 13% 12% 14%
x264 [info]: i8c dc,h,v,p: 52% 23% 17%  7%
x264 [info]: Weighted P-Frames: Y:10.3% UV:4.3%
x264 [info]: ref P L0: 47.2%  8.2% 16.7%  7.7%  6.1%  4.6%  4.0%  2.5%  2.3%  0.6%  0.0%
x264 [info]: ref B L0: 68.5% 13.6%  7.1%  3.8%  2.9%  2.4%  1.4%  0.5%
x264 [info]: ref B L1: 90.5%  9.5%
x264 [info]: kb/s:2199.39
Скриншоты: -

Релиз подготовлен для просмотра на Apple TV, iPad, iPhone, iPod Touch.
Для просмотра данного релиза на компьютере с ОС Windows рекомендуется использовать VLC media player


Показать сообщения:    

Текущее время: 23-Май 05:47

Часовой пояс: UTC + 3


Вы не можете начинать темы
Вы не можете отвечать на сообщения
Вы не можете редактировать свои сообщения
Вы не можете удалять свои сообщения
Вы не можете голосовать в опросах
Вы не можете прикреплять файлы к сообщениям
Вы не можете скачивать файлы

!ВНИМАНИЕ!
Сайт не предоставляет электронные версии произведений, а занимается лишь коллекционированием и каталогизацией ссылок, присылаемых и публикуемых на форуме нашими читателями. Если вы являетесь правообладателем какого-либо представленного материала и не желаете, чтобы ссылка на него находилась в нашем каталоге, свяжитесь с нами, и мы незамедлительно удалим ее. Файлы для обмена на трекере предоставлены пользователями сайта, и администрация не несет ответственности за их содержание. Просьба не заливать файлы, защищенные авторскими правами, а также файлы нелегального содержания!