۩ ‼ Вы находитесь на Бесплатном торрент-трекере TORRNADA.com ۩ Зарегистрируйтесь для получения полного доступа ко всем функциям сайта ! ۩ После регистрации подпишитесь на нашу рассылку в своём профиле ۩
Auto Web Pinger

 

[Цитировать]

Информация о фильме
Название: Большой куш
Оригинальное название: Snatch.
Год выхода: 2000
Страна: Великобритания, США
Жанр: Комедия, криминал
Продолжительность: 01:42:46
Перевод: Многоголосный (Профессиональный) R5; Авторский (Дмитрий Пучков «Гоблин»)
Режиссер: Гай Ричи
В ролях: Джейсон Стэтэм, Брэд Питт, Джейсон Флеминг, Винни Джонс, Бенисио Дель Торо, Деннис Фарина, Эд, Уильям Бек, Энди Бекуив, Юэн Бремнер и др.
О фильме:
Четырехпалый Френки должен был переправить краденый алмаз из Англии в США своему боссу Эви. Но вместо этого герой попадает в эпицентр больших неприятностей. Сделав ставку на подпольном боксерском поединке, Френки попадает в круговорот весьма нежелательных событий. Вокруг героя и его груза разворачивается сложная интрига с участием множества колоритных персонажей лондонского дна — русского гангстера, троих незадачливых грабителей, хитрого боксера и угрюмого громилы грозного мафиози. Каждый норовит в одиночку сорвать Большой Куш.

Файл
Кодек: x264
Качество: BDRip-AVC
Видео: 1024x552 (1.85:1), 1650 Kbps, 23.976 fps, 0.122 bit/pixel
Звук:
Audio 01: Russian; 48 kHz, AC3, 2/0 (L,R) ch, 192.00 kbps (MVO R5/CEE/Позитив)
Audio 02: Russian; 48 kHz, AC3, 2/0 (L,R) ch, 192.00 kbps (AVO Дмитрий Пучков «Гоблин»)
Навигация по главам: Есть
Релиз от: Mr. Movier

MediaInfo

General
Unique ID : 60714237634908512916488589888646307217 (0x2DAD23075E1DB5BF394EFDA94F6C5D91)
Complete name : Snatch.2000.BDRip-AVC_by_Mr.Movier.mkv
Format : Matroska
Format version : Version 4 / Version 2
File size : 1.46 GiB
Duration : 1h 42mn
Overall bit rate : 2 039 Kbps
Movie name : Большой куш
Writing application : XviD4PSP 7.0.148
Writing library : Lavf56.25.101
ORIGINAL_TITLE : Snatch
ENCODING_INFO : MATROSKA,WEBM > MKV / H264 > X264 VBR-3P 1650kbps Custom / AC3 > AC3 / DTS > AC3
Video
ID : 1
Format : AVC
Format/Info : Advanced Video Codec
Format profile : High@L3.1
Format settings, CABAC : Yes
Format settings, ReFrames : 6 frames
Codec ID : V_MPEG4/ISO/AVC
Bit rate : 1 650 Kbps
Width : 1 024 pixels
Height : 552 pixels
Display aspect ratio : 1.85:1
Frame rate mode : Variable
Original frame rate : 23.976 fps
Color space : YUV
Chroma subsampling : 4:2:0
Bit depth : 8 bits
Scan type : Progressive
Bits/(Pixel*Frame) : 0.122
Title : Snatch - Release by Mr. Movier
Writing library : x264 core 146 r2538M 121396c
Encoding settings : cabac=1 / ref=6 / deblock=1:-1:-1 / analyse=0x3:0x133 / me=umh / subme=10 / psy=1 / psy_rd=1,05:0,10 / mixed_ref=1 / me_range=24 / chroma_me=1 / trellis=2 / 8x8dct=1 / cqm=0 / deadzone=21,11 / fast_pskip=0 / chroma_qp_offset=-3 / threads=6 / lookahead_threads=1 / sliced_threads=0 / nr=0 / decimate=1 / interlaced=0 / bluray_compat=0 / constrained_intra=0 / bframes=6 / b_pyramid=2 / b_adapt=2 / b_bias=0 / direct=3 / weightb=1 / open_gop=0 / weightp=2 / keyint=230 / keyint_min=23 / scenecut=40 / intra_refresh=0 / rc_lookahead=230 / rc=2pass / mbtree=1 / bitrate=1650 / ratetol=1,0 / qcomp=0,70 / qpmin=3 / qpmax=69 / qpstep=4 / cplxblur=20,0 / qblur=0,5 / ip_ratio=1,40 / aq=2:1,00
Language : English
Default : Yes
Forced : No
Audio #1
ID : 2
Format : AC-3
Format/Info : Audio Coding 3
Mode extension : CM (complete main)
Format settings, Endianness : Big
Codec ID : A_AC3
Duration : 1h 42mn
Bit rate mode : Constant
Bit rate : 192 Kbps
Channel(s) : 2 channels
Channel positions : Front: L R
Sampling rate : 48.0 KHz
Bit depth : 16 bits
Compression mode : Lossy
Delay relative to video : 27ms
Stream size : 141 MiB (9%)
Title : RUS MVO CEE R5
Language : Russian
Default : Yes
Forced : No
Audio #2
ID : 3
Format : AC-3
Format/Info : Audio Coding 3
Mode extension : CM (complete main)
Format settings, Endianness : Big
Codec ID : A_AC3
Duration : 1h 42mn
Bit rate mode : Constant
Bit rate : 192 Kbps
Channel(s) : 2 channels
Channel positions : Front: L R
Sampling rate : 48.0 KHz
Bit depth : 16 bits
Compression mode : Lossy
Delay relative to video : 27ms
Stream size : 141 MiB (9%)
Title : RUS AVO Goblin 2004
Language : Russian
Default : No
Forced : No
Menu
00:00:00.000 : :Start; Diamond Snatch
00:06:58.293 : :Turkish & Tommy; Brick Top
00:11:53.546 : :Boris & His Brother; Avi; Doug the Head
00:16:31.741 : :Burying a Caravan; Gypsy Bare-Knuckle Champ
00:22:47.908 : :Sol; Tyrone & His Getaway Car
00:30:03.218 : :Replacement Fighter; A Dive in the Fourth
00:36:27.936 : :All Bets Are Off; One-Punch Mickey
00:41:39.414 : :A Problem
00:48:16.393 : :Mickey's Offer
00:53:13.607 : :Not a Bad Moment?
00:59:06.293 : :Bullet-Tooth Tony; Brick Top's Persuasion
01:07:47.105 : :A Hard Man to Track Down; All Roads Lead to Boris
01:13:24.525 : :Desert Eagle vs. Replica; Russian Standoff
01:19:09.536 : :Predictability of Stupidity; “Look in the Dog.”
01:28:12.579 : :“Do Not Knock Him Out.”
01:33:58.341 : :Action & Reaction


Показать сообщения:    

Текущее время: 21-Май 03:34

Часовой пояс: UTC + 3


Вы не можете начинать темы
Вы не можете отвечать на сообщения
Вы не можете редактировать свои сообщения
Вы не можете удалять свои сообщения
Вы не можете голосовать в опросах
Вы не можете прикреплять файлы к сообщениям
Вы не можете скачивать файлы

!ВНИМАНИЕ!
Сайт не предоставляет электронные версии произведений, а занимается лишь коллекционированием и каталогизацией ссылок, присылаемых и публикуемых на форуме нашими читателями. Если вы являетесь правообладателем какого-либо представленного материала и не желаете, чтобы ссылка на него находилась в нашем каталоге, свяжитесь с нами, и мы незамедлительно удалим ее. Файлы для обмена на трекере предоставлены пользователями сайта, и администрация не несет ответственности за их содержание. Просьба не заливать файлы, защищенные авторскими правами, а также файлы нелегального содержания!