۩ ‼ Вы находитесь на Бесплатном торрент-трекере TORRNADA.com ۩ Зарегистрируйтесь для получения полного доступа ко всем функциям сайта ! ۩ После регистрации подпишитесь на нашу рассылку в своём профиле ۩
Auto Web Pinger

 

[Цитировать]

Пугала / Scarecrows (1988) HDTV [H.264/1080i]- Производство: США, Effigy Films
Жанр: Ужасы
Режиссер: Уильям Уэсли
Актеры: Тед Вернон, Майкл Дэвид Симс, Ричард Видан, Кристина Сэнборн, Виктория Кристиан, Дэвид Джеймс Кэмпбелл, Б.Дж. Тернер, Дэкс Вернон
Описание:
Пятеро террористов нападают на базу ВВС США, и перестреляв много людей, похищают 3 миллиона долларов. К ним в заложники попадают пилот и его дочь, которые вынуждены вместе с грабителями покинуть базу на похищенном самолёте. По дороге в Мексику один из террористов, «кидая» своих подельников, одевает парашют и выпрыгивает из самолёта вместе с деньгами. Его коллеги, придя в ярость от предательства партнера, устремляются за ним в погоню. Той же ночью они настигают его на заброшенной ферме, окруженной огромным кукурузным полем, на котором стоят в особом порядке огородные пугала… Отчаянные парни даже не подозревали, в какую кровавую охоту они ввязались…

Продолжительность: 01:19:39
Качество видео: HDTV [1080i]
Перевод: Двуголосый закадровый (НТВ+)
Видео: AVC/H.264, 1920х1080, 4565 kbps
Аудио: MP2, 2 ch, 192 kbps, CBR
Семпл: Скачать

Mediainfo:

Общее
Идентификатор                            : 16 (0x10)
Полное имя                               : Scarecrows_HD_.ts
Формат                                   : MPEG-TS
Размер файла                             : 2,79 Гбайт
Продолжительность                        : 1 ч. 19 м.
Режим общего битрейта                    : Переменный
Общий поток                              : 5006 Кбит/сек
Видео
Идентификатор                            : 1606 (0x646)
Идентификатор меню                       : 606 (0x25E)
Формат                                   : AVC
Формат/Информация                        : Advanced Video Codec
Профиль формата                          : High@L4.0
Параметр CABAC формата                   : Да
Параметр ReFrames формата                : 3 кадра
Параметр GOP формата                     : M=4, N=32
Идентификатор кодека                     : 27
Продолжительность                        : 1 ч. 19 м.
Битрейт                                  : 4565 Кбит/сек
Ширина                                   : 1920 пикселей
Высота                                   : 1080 пикселей
Соотношение сторон                       : 16:9
Частота кадров                           : 25,000 кадров/сек
Стандарт вещания                         : PAL
Цветовое пространство                    : YUV
Субдискретизация насыщенности            : 4:2:0
Битовая глубина                          : 8 бит
Тип развёртки                            : Чересстрочная
Порядок развёртки                        : Верхнее поле первое
Бит/(Пиксели*Кадры)                      : 0.088
Размер потока                            : 2,54 Гбайт (91%)
Основные цвета                           : BT.709
Характеристики трансфера                 : BT.709
Коэффициенты матрицы                     : BT.709
Аудио
Идентификатор                            : 2606 (0xA2E)
Идентификатор меню                       : 606 (0x25E)
Формат                                   : MPEG Audio
Версия формата                           : Version 1
Профиль формата                          : Layer 2
Идентификатор кодека                     : 4
Продолжительность                        : 1 ч. 19 м.
Вид битрейта                             : Постоянный
Битрейт                                  : 192 Кбит/сек
Каналы                                   : 2 канала
Частота                                  : 48,0 КГц
Метод сжатия                             : С потерями
Задержка видео                           : 80 мс.
Размер потока                            : 109 Мбайт (4%)
Язык                                     : std
Язык, дополнительно                      : Clean effects

Рецензия, отзыв:

Шедевр малобюджетного трэша
Первый и один из немногих фильмов Уильяма Уэсли. Снятый в далеком 1988 году за сравнительно небольшие деньги, он все же отображал, насколько необычного человека заглотила пасть киноиндустрии, не дав раскрыться и самовыразиться. «Пугала» — яркий пример фильмов, о которых говорят «первый блин комом», но какой это был ком. Лихо, закрученный сюжет, на тот момент довольно оригинальный, не имел достаточного ускорения, нехватка финансирования сжала и скомкала экшн до невозможности. Актеры, играющие сказать, что отвратно — сказать ровным счетом нечего, умирают, тем не менее, достаточно эффектно. Весь этот сумбур с нескончаемой беготней и собиранием развеянных по ферме денег утомляет и в то же время умиляет…
Фильм, загубивший карьеру практически всех участников данного проекта, с таким же удовольствием, как это делали хозяева фермы со своими незваными гостями, стоит того, чтобы его посмотреть. Ощутить тот саспенс, который сполна компенсирует недостачу иньекцированных вечнозеленых и проникнуться тем, что хотел на самом деле создать Уильям Уэсли в начале своей так и не начавшейся карьере кинорежиссера.
Рекомендую всем ценителям ретро, не имеющего девятизначных сумм в строке «бюджет».
Скриншоты:
Не жилим спасибо. Не забываем голосовать за трекер!!!


Показать сообщения:    

Текущее время: 21-Май 08:11

Часовой пояс: UTC + 3


Вы не можете начинать темы
Вы не можете отвечать на сообщения
Вы не можете редактировать свои сообщения
Вы не можете удалять свои сообщения
Вы не можете голосовать в опросах
Вы не можете прикреплять файлы к сообщениям
Вы не можете скачивать файлы

!ВНИМАНИЕ!
Сайт не предоставляет электронные версии произведений, а занимается лишь коллекционированием и каталогизацией ссылок, присылаемых и публикуемых на форуме нашими читателями. Если вы являетесь правообладателем какого-либо представленного материала и не желаете, чтобы ссылка на него находилась в нашем каталоге, свяжитесь с нами, и мы незамедлительно удалим ее. Файлы для обмена на трекере предоставлены пользователями сайта, и администрация не несет ответственности за их содержание. Просьба не заливать файлы, защищенные авторскими правами, а также файлы нелегального содержания!