۩ ‼ Вы находитесь на Бесплатном торрент-трекере TORRNADA.com ۩ Зарегистрируйтесь для получения полного доступа ко всем функциям сайта ! ۩ После регистрации подпишитесь на нашу рассылку в своём профиле ۩
Auto Web Pinger

 

[Цитировать]

Nils Gessinger - Pass-ion (2011) - Год: 2011
Жанр: Jazz, Funk, Fusion
Продолжительность: 01:16:33
Кодек: FLAC (tracks+.cue)
Битрейт: Lossless
Источник (релизер): tiburon
Издатель (лейбл): Point Music
Страна-производитель диска: EU
Наличие сканов в содержимом раздачи: да
Треклист:
01. Toses [04:52]
02. Bondone [06:26]
03. Catinaccio [08:48]
04. Fugazze [03:56]
05. Fedaia [03:45]
06. Rombo [03:48]
07. Laurin [04:51]
08. Turini [05:59]
09. Rolling Down [03:56]
10. Mendola [03:30]
11. Pordoi [04:55]
12. Bonette [04:09]
13. Stelvio [04:39]
14. Abetone [03:42]
15. Bondone Reprise [09:23]

Отчёт ЕАС:

Exact Audio Copy V1.0 beta 3 from 29. August 2011
EAC extraction logfile from 14. June 2012, 14:31
Nils Gessinger / Pass-ion
Used drive  : HL-DT-STDVDRAM GH20NS10   Adapter: 2  ID: 1
Read mode               : Secure
Utilize accurate stream : Yes
Defeat audio cache      : Yes
Make use of C2 pointers : No
Read offset correction                      : 667
Overread into Lead-In and Lead-Out          : No
Fill up missing offset samples with silence : Yes
Delete leading and trailing silent blocks   : No
Null samples used in CRC calculations       : Yes
Used interface                              : Native Win32 interface for Win NT & 2000
Gap handling                                : Appended to previous track
Used output format              : User Defined Encoder
Selected bitrate                : 1024 kBit/s
Quality                         : High
Add ID3 tag                     : No
Command line compressor         : C:\Program Files\Exact Audio Copy\Flac\flac.exe
Additional command line options : -8 -V -T "ARTIST=%artist%" -T "TITLE=%title%" -T "ALBUM=%albumtitle%" -T "DATE=%year%" -T "TRACKNUMBER=%tracknr%" -T "TOTALTRACKS=%numtracks%" -T "GENRE=%genre%" -T "ALBUMARTIST=%albumartist%" -T "ALBUM ARTIST=%albumartist%" -T "COMMENT=EAC Secure Mode, Test & Copy, AccurateRip, FLAC -8" %source%
TOC of the extracted CD
     Track |   Start  |  Length  | Start sector | End sector
    ---------------------------------------------------------
        1  |  0:00.00 |  4:51.64 |         0    |    21888
        2  |  4:51.64 |  6:25.26 |     21889    |    50789
        3  | 11:17.15 |  8:47.45 |     50790    |    90359
        4  | 20:04.60 |  3:55.09 |     90360    |   107993
        5  | 23:59.69 |  3:44.36 |    107994    |   124829
        6  | 27:44.30 |  3:48.00 |    124830    |   141929
        7  | 31:32.30 |  4:50.20 |    141930    |   163699
        8  | 36:22.50 |  5:58.40 |    163700    |   190589
        9  | 42:21.15 |  3:55.47 |    190590    |   208261
       10  | 46:16.62 |  3:29.06 |    208262    |   223942
       11  | 49:45.68 |  4:54.66 |    223943    |   246058
       12  | 54:40.59 |  4:08.62 |    246059    |   264720
       13  | 58:49.46 |  4:38.13 |    264721    |   285583
       14  | 63:27.59 |  3:41.34 |    285584    |   302192
       15  | 67:09.18 |  9:23.00 |    302193    |   344417
Track  1
     Filename D:\Nils Gessinger - Pass-ion (2011) [FLAC]\01 - Toses.wav
     Pre-gap length  0:00:02.00
     Peak level 95.9 %
     Extraction speed 4.0 X
     Track quality 99.9 %
     Test CRC 20F65431
     Copy CRC 20F65431
     Cannot be verified as accurate (confidence 1)  [223BF15B], AccurateRip returned [EC8442F9]  (AR v2)
     Copy OK
Track  2
     Filename D:\Nils Gessinger - Pass-ion (2011) [FLAC]\02 - Bondone.wav
     Peak level 96.3 %
     Extraction speed 5.4 X
     Track quality 100.0 %
     Test CRC 74A78837
     Copy CRC 74A78837
     Cannot be verified as accurate (confidence 1)  [519589C6], AccurateRip returned [F4C7B4DD]  (AR v2)
     Copy OK
Track  3
     Filename D:\Nils Gessinger - Pass-ion (2011) [FLAC]\03 - Catinaccio.wav
     Peak level 73.3 %
     Extraction speed 6.2 X
     Track quality 100.0 %
     Test CRC 21E862BE
     Copy CRC 21E862BE
     Cannot be verified as accurate (confidence 1)  [29BC74C2], AccurateRip returned [ABFAB4F6]  (AR v2)
     Copy OK
Track  4
     Filename D:\Nils Gessinger - Pass-ion (2011) [FLAC]\04 - Fugazze.wav
     Peak level 87.0 %
     Extraction speed 6.1 X
     Track quality 100.0 %
     Test CRC 200DC5C3
     Copy CRC 200DC5C3
     Cannot be verified as accurate (confidence 1)  [2E26BE0C], AccurateRip returned [696E2614]  (AR v2)
     Copy OK
Track  5
     Filename D:\Nils Gessinger - Pass-ion (2011) [FLAC]\05 - Fedaia.wav
     Peak level 42.2 %
     Extraction speed 6.3 X
     Track quality 100.0 %
     Test CRC 20B7306D
     Copy CRC 20B7306D
     Cannot be verified as accurate (confidence 1)  [0C7D0599], AccurateRip returned [1058ED77]  (AR v2)
     Copy OK
Track  6
     Filename D:\Nils Gessinger - Pass-ion (2011) [FLAC]\06 - Rombo.wav
     Peak level 81.2 %
     Extraction speed 5.9 X
     Track quality 100.0 %
     Test CRC FE696459
     Copy CRC FE696459
     Cannot be verified as accurate (confidence 1)  [42D856C2], AccurateRip returned [B76711FE]  (AR v2)
     Copy OK
Track  7
     Filename D:\Nils Gessinger - Pass-ion (2011) [FLAC]\07 - Laurin.wav
     Peak level 83.2 %
     Extraction speed 6.5 X
     Track quality 100.0 %
     Test CRC D7E838C1
     Copy CRC D7E838C1
     Cannot be verified as accurate (confidence 1)  [09121036], AccurateRip returned [AEFD8CE3]  (AR v2)
     Copy OK
Track  8
     Filename D:\Nils Gessinger - Pass-ion (2011) [FLAC]\08 - Turini.wav
     Peak level 75.5 %
     Extraction speed 6.4 X
     Track quality 99.9 %
     Test CRC 41B0335E
     Copy CRC 41B0335E
     Cannot be verified as accurate (confidence 1)  [710690AB], AccurateRip returned [183E6804]  (AR v2)
     Copy OK
Track  9
     Filename D:\Nils Gessinger - Pass-ion (2011) [FLAC]\09 - Rolling Down.wav
     Peak level 96.5 %
     Extraction speed 6.8 X
     Track quality 100.0 %
     Test CRC 70EF77CA
     Copy CRC 70EF77CA
     Cannot be verified as accurate (confidence 1)  [E656B854], AccurateRip returned [C2DD4C7A]  (AR v2)
     Copy OK
Track 10
     Filename D:\Nils Gessinger - Pass-ion (2011) [FLAC]\10 - Mendola.wav
     Peak level 75.4 %
     Extraction speed 7.0 X
     Track quality 100.0 %
     Test CRC EA669967
     Copy CRC EA669967
     Cannot be verified as accurate (confidence 1)  [0CD12978], AccurateRip returned [69B3ECF1]  (AR v2)
     Copy OK
Track 11
     Filename D:\Nils Gessinger - Pass-ion (2011) [FLAC]\11 - Pordoi.wav
     Peak level 92.9 %
     Extraction speed 7.6 X
     Track quality 100.0 %
     Test CRC 28369447
     Copy CRC 28369447
     Cannot be verified as accurate (confidence 1)  [A52913D1], AccurateRip returned [1A54E13A]  (AR v2)
     Copy OK
Track 12
     Filename D:\Nils Gessinger - Pass-ion (2011) [FLAC]\12 - Bonette.wav
     Peak level 51.3 %
     Extraction speed 8.0 X
     Track quality 100.0 %
     Test CRC 29D49697
     Copy CRC 29D49697
     Cannot be verified as accurate (confidence 1)  [F97DA72F], AccurateRip returned [A04B244D]  (AR v2)
     Copy OK
Track 13
     Filename D:\Nils Gessinger - Pass-ion (2011) [FLAC]\13 - Stelvio.wav
     Peak level 95.3 %
     Extraction speed 8.3 X
     Track quality 100.0 %
     Test CRC EB77EE87
     Copy CRC EB77EE87
     Cannot be verified as accurate (confidence 1)  [B1D40B75], AccurateRip returned [86692479]  (AR v2)
     Copy OK
Track 14
     Filename D:\Nils Gessinger - Pass-ion (2011) [FLAC]\14 - Abetone.wav
     Peak level 64.6 %
     Extraction speed 6.1 X
     Track quality 99.9 %
     Test CRC 0BC1B67C
     Copy CRC 0BC1B67C
     Cannot be verified as accurate (confidence 1)  [478A819E], AccurateRip returned [54E510FE]  (AR v2)
     Copy OK
Track 15
     Filename D:\Nils Gessinger - Pass-ion (2011) [FLAC]\15 - Bondone Reprise.wav
     Peak level 97.0 %
     Extraction speed 9.2 X
     Track quality 100.0 %
     Test CRC 92080F4F
     Copy CRC 92080F4F
     Cannot be verified as accurate (confidence 1)  [19898B9E], AccurateRip returned [C352B3C9]  (AR v2)
     Copy OK
No tracks could be verified as accurate
You may have a different pressing from the one(s) in the database
No errors occurred
End of status report
==== Log checksum 87F977193A1048D3E223D2C555E5C797D5D911CA58107A4C2145CBAFDDE884A1 ====

Отчёт auCDtect Task manager:

-----------------------
DON'T MODIFY THIS FILE
-----------------------
PERFORMER: auCDtect Task Manager, ver. 1.6.0 RC1 build 1.6.0.1
Copyright (c) 2008-2010 y-soft. All rights reserved
http://y-soft.org
ANALYZER: auCDtect: CD records authenticity detector, version 0.8.2
Copyright (c) 2004 Oleg Berngardt. All rights reserved.
Copyright (c) 2004 Alexander Djourik. All rights reserved.
FILE: 15 - Bondone Reprise.flac
  Size: 36737575 Hash: 936475D363FE6538F74024B80AB403CD Accuracy: -m0
  Conclusion: CDDA 100%
  Signature: 57C082A4120A001AACDA3652EB8402A8459860FA
FILE: 14 - Abetone.flac
  Size: 13206809 Hash: CF99991A83976549ABC0F64078C90F68 Accuracy: -m0
  Conclusion: CDDA 99%
  Signature: 63FA5D335624B0C19FAECE6D5784C9AA7DD59358
FILE: 13 - Stelvio.flac
  Size: 25537193 Hash: 2449BD6A5F2E415118E6946BFCD269DA Accuracy: -m0
  Conclusion: CDDA 100%
  Signature: F4203277C431FB048884C48B58402CB6BC195096
FILE: 12 - Bonette.flac
  Size: 16327260 Hash: 36A56FCF7815BB5278A01AD120C6B68C Accuracy: -m0
  Conclusion: CDDA 100%
  Signature: 617FA546901DCEE520D43DF2768043A525F83420
FILE: 11 - Pordoi.flac
  Size: 29840763 Hash: 0BE9A79CA38FD2DDA6190563FC1A1F3E Accuracy: -m0
  Conclusion: CDDA 99%
  Signature: 8BE40A940BCDAB45B28204E17AD05D401FF03899
FILE: 10 - Mendola.flac
  Size: 19745703 Hash: 4188155BBD6572F77B1B1C7FDB5B1D95 Accuracy: -m0
  Conclusion: CDDA 99%
  Signature: 7CEDC13257346483FC541002627A411555835DDC
FILE: 09 - Rolling Down.flac
  Size: 27320768 Hash: 17E83B14ABA02CA4AEBF01FCAD41E79E Accuracy: -m0
  Conclusion: CDDA 100%
  Signature: DFD3F0FFEB82F76F9414B02258088020B08D3EF0
FILE: 08 - Turini.flac
  Size: 37641377 Hash: 6B1439E79ED6E9F3CB2005140834D0AB Accuracy: -m0
  Conclusion: CDDA 100%
  Signature: C33F41CEDEA5272415C3C5300F852B318ECF1C4B
FILE: 07 - Laurin.flac
  Size: 26636733 Hash: 08902BD8B4E24490FED65894EA623F18 Accuracy: -m0
  Conclusion: CDDA 100%
  Signature: BC53ACDF122B1F5B351D38831604D4817A5E7A1C
FILE: 06 - Rombo.flac
  Size: 23028811 Hash: 882A53CFA0C3E3CBAEBF12B924D89710 Accuracy: -m0
  Conclusion: CDDA 100%
  Signature: E10DEEBDC55910992B06CBD96E2A40C548CD38A9
FILE: 05 - Fedaia.flac
  Size: 17453474 Hash: E29683931063CDFE15D4A07FCD46B3EE Accuracy: -m0
  Conclusion: CDDA 100%
  Signature: 031B2BD1DC31BE28AE97B38ACCF88C3B60590AA3
FILE: 04 - Fugazze.flac
  Size: 25859143 Hash: F454B363BA8F9A5FE8A69043C8917FD7 Accuracy: -m0
  Conclusion: CDDA 100%
  Signature: 0AC7AE80B5DABB9704080019D2E1757CE35918BC
FILE: 03 - Catinaccio.flac
  Size: 50046852 Hash: A9AFFB3AB3EBADC68FF1D9B2AA9CAA01 Accuracy: -m0
  Conclusion: CDDA 100%
  Signature: 2B208A7C173EAE1A23465E0A1FABBA23CD50C378
FILE: 02 - Bondone.flac
  Size: 32917772 Hash: 6F32160A984A3A711DC98869C0EA5C57 Accuracy: -m0
  Conclusion: CDDA 100%
  Signature: 762364BD18CAD581C397F82658A90D75DF017E35
FILE: 01 - Toses.flac
  Size: 31541674 Hash: 0616176F13480B4238C244C9C8A87BFC Accuracy: -m0
  Conclusion: CDDA 100%
  Signature: 0A4EB0867450F91BDD0C1B415C36B7D2371A7BCD

Содержание индексной карты (.CUE)

REM GENRE Fusion
REM DATE 2011
REM DISCID E811F00F
REM COMMENT "ExactAudioCopy v1.0b3"
PERFORMER "Nils Gessinger"
TITLE "Pass-ion"
FILE "01 - Toses.wav" WAVE
  TRACK 01 AUDIO
    TITLE "Toses"
    PERFORMER "Nils Gessinger"
    FLAGS DCP
    INDEX 01 00:00:00
FILE "02 - Bondone.wav" WAVE
  TRACK 02 AUDIO
    TITLE "Bondone"
    PERFORMER "Nils Gessinger"
    FLAGS DCP
    INDEX 01 00:00:00
FILE "03 - Catinaccio.wav" WAVE
  TRACK 03 AUDIO
    TITLE "Catinaccio"
    PERFORMER "Nils Gessinger"
    FLAGS DCP
    INDEX 01 00:00:00
FILE "04 - Fugazze.wav" WAVE
  TRACK 04 AUDIO
    TITLE "Fugazze"
    PERFORMER "Nils Gessinger"
    FLAGS DCP
    INDEX 01 00:00:00
FILE "05 - Fedaia.wav" WAVE
  TRACK 05 AUDIO
    TITLE "Fedaia"
    PERFORMER "Nils Gessinger"
    FLAGS DCP
    INDEX 01 00:00:00
FILE "06 - Rombo.wav" WAVE
  TRACK 06 AUDIO
    TITLE "Rombo"
    PERFORMER "Nils Gessinger"
    FLAGS DCP
    INDEX 01 00:00:00
FILE "07 - Laurin.wav" WAVE
  TRACK 07 AUDIO
    TITLE "Laurin"
    PERFORMER "Nils Gessinger"
    FLAGS DCP
    INDEX 01 00:00:00
FILE "08 - Turini.wav" WAVE
  TRACK 08 AUDIO
    TITLE "Turini"
    PERFORMER "Nils Gessinger"
    FLAGS DCP
    INDEX 01 00:00:00
FILE "09 - Rolling Down.wav" WAVE
  TRACK 09 AUDIO
    TITLE "Rolling Down"
    PERFORMER "Nils Gessinger"
    FLAGS DCP
    INDEX 01 00:00:00
FILE "10 - Mendola.wav" WAVE
  TRACK 10 AUDIO
    TITLE "Mendola"
    PERFORMER "Nils Gessinger"
    FLAGS DCP
    INDEX 01 00:00:00
FILE "11 - Pordoi.wav" WAVE
  TRACK 11 AUDIO
    TITLE "Pordoi"
    PERFORMER "Nils Gessinger"
    FLAGS DCP
    INDEX 01 00:00:00
FILE "12 - Bonette.wav" WAVE
  TRACK 12 AUDIO
    TITLE "Bonette"
    PERFORMER "Nils Gessinger"
    FLAGS DCP
    INDEX 01 00:00:00
FILE "13 - Stelvio.wav" WAVE
  TRACK 13 AUDIO
    TITLE "Stelvio"
    PERFORMER "Nils Gessinger"
    FLAGS DCP
    INDEX 01 00:00:00
FILE "14 - Abetone.wav" WAVE
  TRACK 14 AUDIO
    TITLE "Abetone"
    PERFORMER "Nils Gessinger"
    FLAGS DCP
    INDEX 01 00:00:00
FILE "15 - Bondone Reprise.wav" WAVE
  TRACK 15 AUDIO
    TITLE "Bondone Reprise"
    PERFORMER "Nils Gessinger"
    FLAGS DCP
    INDEX 01 00:00:00

Состав

Nills Gessinger - keyboards, piano
Will Lee - bass
Rocky Bryant - drums, cymbals
John Tropea - guitars
Peter Weniger - tenor sax
Herb Geller - alto sax
Joe Gallardo - trombone
Tim Weston - guitar
Roland Cabezas - guitar
Pablo Escayola - percussion, cymbals
Thorsten Benkenstein - trumpet
Billy King - vocals
Madeleine Lang - vocals
Heiko Fischer - guitars
Arnd Geise - bass
Jost Nickel - drums, percussion
David Woodford - tenor sax
Wolfgang Schliјter - vibraphone

Не жилим спасибо. Не забываем голосовать за трекер!!!
[torrnada.com].t105166.torrent
Торрент: Зарегистрирован   [ 2015-07-10 15:50 ] · 5EFEBAC846A3276720D9A3F35DC439DEE38961A9

Скачать .torrent

Скачать

17 KB

Статус: проверено
Скачан: 48 раз
Размер: 397 MB
Оценка:  - (Голосов: 0) СуперХорошоСреднеТак себеОтстой
Поблагодарили: 2  Спасибо   (список)
Поделится:


Показать сообщения:    

Текущее время: 21-Май 03:38

Часовой пояс: UTC + 3


Вы не можете начинать темы
Вы не можете отвечать на сообщения
Вы не можете редактировать свои сообщения
Вы не можете удалять свои сообщения
Вы не можете голосовать в опросах
Вы не можете прикреплять файлы к сообщениям
Вы можете скачивать файлы

!ВНИМАНИЕ!
Сайт не предоставляет электронные версии произведений, а занимается лишь коллекционированием и каталогизацией ссылок, присылаемых и публикуемых на форуме нашими читателями. Если вы являетесь правообладателем какого-либо представленного материала и не желаете, чтобы ссылка на него находилась в нашем каталоге, свяжитесь с нами, и мы незамедлительно удалим ее. Файлы для обмена на трекере предоставлены пользователями сайта, и администрация не несет ответственности за их содержание. Просьба не заливать файлы, защищенные авторскими правами, а также файлы нелегального содержания!