۩ ‼ Вы находитесь на Бесплатном торрент-трекере TORRNADA.com ۩ Зарегистрируйтесь для получения полного доступа ко всем функциям сайта ! ۩ После регистрации подпишитесь на нашу рассылку в своём профиле ۩
Auto Web Pinger

 

[Цитировать]

Информация о фильме
Название: Салем
Оригинальное название: Salem
Год выхода: 2014
Жанр: Фантастика, триллер, драма
Режиссер: Ричард Шепард
В ролях: Шэйн Уэст, Джанет Монтгомери, Эжур Парсонс, Моргана Шоу, Сет Гейбл, Ксандер Беркли, Эшли Мадекве, Элиз Эберли, Джон Артур, Кристофер Берри, Дайан Салинджер
О фильме:
Сюжет сериала закручен вокруг отважного ветерана войны, который возвращается с полей сражений в родной Салем. Добравшись до родных мест, мужчина обнаруживает, что все местное население охвачено безумием охоты на «ведьм».

Список серий:

1. Сезон
01. Клятва / The Vow
02. Несчастное дитя / The Stone Child
03. Напрасно / In Vain
04. Выжившие / Survivors
05. Вранье / Lies
06. Красная роза и шиповник / The Red Rose and the Briar
07. Наша личная Америка / Our Own Private America
08. Отъезд / Departures
09. Бойтесь, дети / Children, Be Afraid
10. Дом боли / The House of Pain
11. Кошки-мышки / Cat and Mouse
12. Прах к праху / Ashes Ashes
13. Все падут / All Fall Down
2. Сезон
01. К убийству призывая (Cry Havoc)
02. Кровавый поцелуй (Blood Kiss)
03. Изнутри (From Within)
04. Книга теней (Book of Shadows)
05. Виноцветное море (The Wine Dark Sea)
06. К добру ли эта встреча при луне (Ill Met by Moonlight)
07. Манящая (The Beckoning Fair One)
08. Мертвые птицы (Dead Birds)
09. Плата за грехи (Wages of Sin)
10. Пока смерть не разлучит нас (Til Death Do Us Part)
11. Ад на земле (On Earth as in Hell)
12. Полночи не бывать (Midnight Never Come)
13. Ведьмин час (The Witching Hour)
Страна: США
Студия: Tribune Studios, Twentieth Century Fox Television
Продолжительность: 26 x ~ 00:45:00
Перевод: Профессиональный (многоголосый, закадровый) [AlexFilm]
Файл
Формат: AVI
Качество: WEB-DLRip
Видео: XviD, 720x400, ~2200 kbps, 23.976 fps
Аудио: AC3, 48.0 KHz, 6 ch, 192 Kbps
Субтитры: Нет
Семпл

Скриншоты

MI

Complete name : E:KinoSalem.XviD.AF.GeneralfilmSalem.S02.2015.XviD.WEB-DLRip.AF.GeneralfilmSalem.s02e06.2015.XviD.WEB-DLRip.AF.Generalfilm.avi
Format : AVI
Format/Info : Audio Video Interleave
File size : 786 MiB
Duration : 45mn 6s
Overall bit rate : 2 436 Kbps
Writing application : VirtualDubMod 1.5.10.3 | www.virtualdub-fr.org || (build 2550/release)
Writing library : VirtualDubMod build 2550/release
Video
ID : 0
Format : MPEG-4 Visual
Format profile : Advanced Simple@L5
Format settings, BVOP : 2
Format settings, QPel : Yes
Format settings, GMC : 3 warppoints
Format settings, Matrix : Default (H.263)
Codec ID : XVID
Codec ID/Hint : XviD
Duration : 45mn 6s
Bit rate : 2 235 Kbps
Width : 720 pixels
Height : 400 pixels
Display aspect ratio : 16:9
Frame rate : 23.976 fps
Color space : YUV
Chroma subsampling : 4:2:0
Bit depth : 8 bits
Scan type : Progressive
Compression mode : Lossy
Bits/(Pixel*Frame) : 0.324
Stream size : 721 MiB (92%)
Writing library : XviD 1.2.1 (UTC 2008-12-04)
Audio
ID : 1
Format : AC-3
Format/Info : Audio Coding 3
Mode extension : CM (complete main)
Format settings, Endianness : Big
Codec ID : 2000
Duration : 45mn 6s
Bit rate mode : Constant
Bit rate : 192 Kbps
Channel(s) : 6 channels
Channel positions : Front: L C R, Side: L R, LFE
Sampling rate : 48.0 KHz
Compression mode : Lossy
Stream size : 62.0 MiB (8%)
Alignment : Split accross interleaves
Interleave, duration : 42 ms (1.00 video frame)
Interleave, preload duratio : 500 ms
Релиз от: Не жилим спасибо. Не забываем голосовать за трекер!!!


Показать сообщения:    

Текущее время: 21-Май 10:01

Часовой пояс: UTC + 3


Вы не можете начинать темы
Вы не можете отвечать на сообщения
Вы не можете редактировать свои сообщения
Вы не можете удалять свои сообщения
Вы не можете голосовать в опросах
Вы не можете прикреплять файлы к сообщениям
Вы не можете скачивать файлы

!ВНИМАНИЕ!
Сайт не предоставляет электронные версии произведений, а занимается лишь коллекционированием и каталогизацией ссылок, присылаемых и публикуемых на форуме нашими читателями. Если вы являетесь правообладателем какого-либо представленного материала и не желаете, чтобы ссылка на него находилась в нашем каталоге, свяжитесь с нами, и мы незамедлительно удалим ее. Файлы для обмена на трекере предоставлены пользователями сайта, и администрация не несет ответственности за их содержание. Просьба не заливать файлы, защищенные авторскими правами, а также файлы нелегального содержания!