۩ ‼ Вы находитесь на Бесплатном торрент-трекере TORRNADA.com ۩ Зарегистрируйтесь для получения полного доступа ко всем функциям сайта ! ۩ После регистрации подпишитесь на нашу рассылку в своём профиле ۩
Auto Web Pinger

 

[Цитировать]

Поворот не туда 6 / Wrong Turn 6: Last Resort
(UNRATED)

-
4.464 / 10 4.80 / 10
- Год выпуска: 2014
Страна: США
Жанр: Ужасы
Продолжительность: 01:30:30
Перевод: Профессиональный (многоголосый закадровый) IVI
Оригинальная аудиодорожка: Есть
Cубтитры: Английские
Режиссёр: Валерий Милев
Сценарий: Фрэнк Х. Вудворд
Продюсер: Джеффри Бич, Филлип Дж. Рот, Джон Каппилла
Композитор: Клод Фойзи
Монтаж: Дон Адамс, Камерон Халленбек
В ролях: Энтони Иллот, Крис Джарвис, Акилла Золл, Сэди Кац, Ролло Скиннер, Билли Эшворт, Джо Гаминара, Роксанна Паллетт, Радослав Парванов, Данко Йорданов
Мировая премьера: 22 августа 2014
Описание: В поисках внезапного и таинственного наследства, Дэнни и его друзья оказываются в Хобб Спрингс, на заброшенном курорте в горах Западной Вирджинии. Вскоре Дэнни узнает, что его родственники, которых он никогда не знал, вели довольно странный образ жизни, основывающийся на каннибализме. Дэнни придется выбирать между друзьями и родственниками.-Качество исходника: BDRemux
Качество: BDRip
Тип: SD (576p)
Контейнер: M4V
Видео: H.264, 1024x576, 16:9, 2 200 Kbps, 23.976 fps
Аудио 1: Русский/Профессиональный (многоголосый закадровый) , AAC / 2.0 / 129 Kbps / 48.0 KHz
Аудио 2: Английский/Оригинальная дорожка , AAC / 2.0 / 132 Kbps / 48.0 KHz
Субтитры: Английские полные
-

iTunes Meta Tags

Код:
Media Type: Movie
Sort Name: Wrong Turn 6: Last Resort (Unrated)
XID: Apple:vendor_id:2014-839992
Content ID: 916063220
Copyright: © 2014 Twentieth Century Fox Film Corporation and Regency Entertainment (USA), Inc.
ScreenWriters: Фрэнк Х. Вудворд
Producers: Джеффри Бич, Филлип Дж. Рот, Джон Каппилла
Director: Валерий Милев
Cast: Энтони Иллот, Крис Джарвис, Акилла Золл, Сэди Кац, Ролло Скиннер, Билли Эшворт, Джо Гаминара, Роксанна Паллетт, Радослав Парванов, Данко Йорданов
Long Description: В поисках внезапного и таинственного наследства, Дэнни и его друзья оказываются в Хобб Спрингс, на заброшенном курорте в горах Западной Вирджинии. Вскоре Дэнни узнает, что его родственники, которых он никогда не знал, вели довольно странный образ жизни, основывающийся на каннибализме. Дэнни придется выбирать между друзьями и родственниками.
Description: В поисках внезапного и таинственного наследства, Дэнни и его друзья оказываются в Хобб Спрингс, на заброшенном курорте в горах Западной Вирджинии.
Release Date: 2014-08-22T08:00:00Z
Genre: Horror
Artist: Valeri Milev
Name: Wrong Turn 6: Last Resort (Unrated)

MediaInfo

Код:
General
Complete name                            : C:\\Handbrake\\Wrong.Turn.6.Last.Resort.(SD).(pk).m4v
Format                                   : MPEG-4
Codec ID                                 : M4V
File size                                : 1.56 GiB
Duration                                 : 1h 30mn
Overall bit rate mode                    : Variable
Overall bit rate                         : 2 471 Kbps
Movie name                               : Wrong Turn 6: Last Resort (Unrated)
Performer                                : Valeri Milev
Genre                                    : Horror
ContentType                              : Short Film
Description                              : В поисках внезапного и таинственного наследства, Дэнни и его друзья оказываются в Хобб Спрингс, на заброшенном курорте в горах Западной Вирджинии.
Recorded date                            : UTC 2014-08-22 08:00:00
Encoded date                             : UTC 2014-10-21 09:50:27
Tagged date                              : UTC 2014-10-21 09:51:21
Writing application                      : MkvToMp4 [www.mkvtomp4.ru] version 0.222
Copyright                                : © 2014 Twentieth Century Fox Film Corporation and Regency Entertainment (USA), Inc.
Service name                             : AOL
Cover                                    : Yes
Title/Sort                               : Wrong Turn 6: Last Resort (Unrated)
LongDescription                          : В поисках внезапного и таинственного наследства, Дэнни и его друзья оказываются в Хобб Спрингс, на заброшенном курорте в горах Западной Вирджинии. Вскоре Дэнни узнает, что его родственники, которых он никогда не знал, вели довольно странный образ жизни, основывающийся на каннибализме. Дэнни придется выбирать между друзьями и родственниками.
AppleStoreAccountType                    : AOL
AppleStoreCountry                        : Unknown Country
AppleStoreCatalogID                      : 916063220
Vendor                                   : Apple:vendor_id:2014-839992
ContentRating                            : R
iTunMOVI                                 : / / /  /   cast /    /    /     name /     Энтони Иллот /    /    /     name /     Крис Джарвис /    /    /     name /     Акилла Золл /    /    /     name /     Сэди Кац /    /    /     name /     Ролло Скиннер /    /    /     name /     Билли Эшворт /    /    /     name /     Джо Гаминара /    /    /     name /     Роксанна Паллетт /    /    /     name /     Радослав Парванов /    /    /     name /     Данко Йорданов /    /    /   directors /    /    /     name /     Валерий Милев /    /    /   producers /    /    /     name /     Джеффри Бич /    /    /     name /     Филлип Дж. Рот /    /    /     name /     Джон Каппилла /    /    /   screenwriters /    /    /     name /     Фрэнк Х. Вудворд /    /    /  /
Video
ID                                       : 1
Format                                   : AVC
Format/Info                              : Advanced Video Codec
Format profile                           : High@L4.0
Format settings, CABAC                   : Yes
Format settings, ReFrames                : 9 frames
Codec ID                                 : avc1
Codec ID/Info                            : Advanced Video Coding
Duration                                 : 1h 30mn
Bit rate                                 : 2 200 Kbps
Maximum bit rate                         : 12.9 Mbps
Width                                    : 1 024 pixels
Height                                   : 576 pixels
Display aspect ratio                     : 16:9
Frame rate mode                          : Variable
Frame rate                               : 23.976 fps
Minimum frame rate                       : 7.942 fps
Maximum frame rate                       : 24.295 fps
Color space                              : YUV
Chroma subsampling                       : 4:2:0
Bit depth                                : 8 bits
Scan type                                : Progressive
Bits/(Pixel*Frame)                       : 0.156
Stream size                              : 1.39 GiB (89%)
Writing library                          : x264 core 130 r2273 b3065e6
Encoding settings                        : cabac=1 / ref=9 / deblock=1:0:0 / analyse=0x3:0x113 / me=umh / subme=9 / psy=1 / psy_rd=1.00:0.00 / mixed_ref=1 / me_range=32 / chroma_me=1 / trellis=1 / 8x8dct=1 / cqm=0 / deadzone=21,11 / fast_pskip=1 / chroma_qp_offset=-2 / threads=12 / lookahead_threads=1 / sliced_threads=0 / nr=0 / decimate=1 / interlaced=0 / bluray_compat=0 / constrained_intra=0 / bframes=6 / b_pyramid=2 / b_adapt=2 / b_bias=0 / direct=1 / weightb=1 / open_gop=0 / weightp=2 / keyint=240 / keyint_min=24 / scenecut=40 / intra_refresh=0 / rc_lookahead=40 / rc=2pass / mbtree=1 / bitrate=2200 / ratetol=1.0 / qcomp=0.60 / qpmin=0 / qpmax=69 / qpstep=4 / cplxblur=20.0 / qblur=0.5 / ip_ratio=1.40 / aq=1:1.00
Language                                 : English
Encoded date                             : UTC 2014-10-21 09:50:27
Tagged date                              : UTC 2014-10-21 09:50:59
Color primaries                          : BT.709
Transfer characteristics                 : BT.709
Matrix coefficients                      : BT.709
Audio #1
ID                                       : 2
Format                                   : AAC
Format/Info                              : Advanced Audio Codec
Format profile                           : LC
Codec ID                                 : 40
Duration                                 : 1h 30mn
Bit rate mode                            : Variable
Bit rate                                 : 129 Kbps
Maximum bit rate                         : 169 Kbps
Channel(s)                               : 2 channels
Channel positions                        : Front: L R
Sampling rate                            : 48.0 KHz
Compression mode                         : Lossy
Stream size                              : 83.5 MiB (5%)
Language                                 : Russian
Encoded date                             : UTC 2014-10-21 09:50:51
Tagged date                              : UTC 2014-10-21 09:50:59
Audio #2
ID                                       : 3
Format                                   : AAC
Format/Info                              : Advanced Audio Codec
Format profile                           : LC
Codec ID                                 : 40
Duration                                 : 1h 30mn
Bit rate mode                            : Variable
Bit rate                                 : 132 Kbps
Maximum bit rate                         : 180 Kbps
Channel(s)                               : 2 channels
Channel positions                        : Front: L R
Sampling rate                            : 48.0 KHz
Compression mode                         : Lossy
Stream size                              : 87.2 MiB (5%)
Language                                 : English
Encoded date                             : UTC 2014-10-21 09:50:55
Tagged date                              : UTC 2014-10-21 09:50:59
Text
ID                                       : 4
Format                                   : Timed Text
Muxing mode                              : sbtl
Codec ID                                 : tx3g
Duration                                 : 1h 30mn
Bit rate mode                            : Variable
Bit rate                                 : 52 bps
Stream size                              : 34.6 KiB (0%)
Language                                 : English
Encoded date                             : UTC 2014-10-21 09:50:59
Tagged date                              : UTC 2014-10-21 09:50:59
Menu
ID                                       : 5
Codec ID                                 : text
Duration                                 : 1h 30mn
Encoded date                             : UTC 2014-10-21 09:51:17
Tagged date                              : UTC 2014-10-21 09:51:17
Bit rate mode                            : VBR

x264 лог

Код:
x264 [info]: frame I:1252  Avg QP:14.73  size: 83291  PSNR Mean Y:49.15 U:51.66 V:52.29 Avg:49.80 Global:48.96
x264 [info]: frame P:33932 Avg QP:17.97  size: 22830  PSNR Mean Y:46.72 U:50.82 V:51.50 Avg:47.54 Global:46.66
x264 [info]: frame B:95016 Avg QP:19.73  size:  6463  PSNR Mean Y:46.10 U:51.25 V:51.97 Avg:47.03 Global:45.94
x264 [info]: consecutive B-frames:  4.4%  5.9% 12.5% 25.9% 18.5% 26.8%  6.1%
x264 [info]: mb I  I16..4: 12.1% 65.7% 22.2%
x264 [info]: mb P  I16..4:  2.6% 11.0%  2.5%  P16..4: 40.0% 21.3% 12.6%  0.0%  0.0%    skip:10.0%
x264 [info]: mb B  I16..4:  0.2%  1.0%  0.3%  B16..8: 42.4%  7.9%  2.0%  direct: 3.9%  skip:42.2%  L0:42.7% L1:49.4% BI: 7.9%
x264 [info]: 8x8 transform intra:67.7% inter:74.9%
x264 [info]: coded y,uvDC,uvAC intra: 78.5% 75.6% 42.5% inter: 23.5% 20.4% 1.8%
x264 [info]: i16 v,h,dc,p: 23% 15%  6% 56%
x264 [info]: i8 v,h,dc,ddl,ddr,vr,hd,vl,hu: 10%  7%  3% 10% 15% 15% 14% 13% 12%
x264 [info]: i4 v,h,dc,ddl,ddr,vr,hd,vl,hu:  9%  7%  2% 10% 16% 16% 15% 12% 13%
x264 [info]: i8c dc,h,v,p: 34% 26% 21% 19%
x264 [info]: Weighted P-Frames: Y:4.5% UV:2.4%
x264 [info]: ref P L0: 55.5% 12.0% 13.6%  5.6%  4.0%  3.2%  2.5%  1.7%  1.5%  0.4%  0.0%
x264 [info]: ref B L0: 80.2%  9.7%  4.5%  2.1%  1.5%  1.1%  0.7%  0.3%
x264 [info]: ref B L1: 93.0%  7.0%
x264 [info]: SSIM Mean Y:0.9849030 (18.211db)
x264 [info]: PSNR Mean Y:46.294 U:51.145 V:51.849 Avg:47.190 Global:46.138 kb/s:2199.47

Скриншоты

-

Релиз подготовлен для просмотра на Apple TV, iPad, iPhone, iPod Touch.
Для просмотра данного релиза на компьютере с ОС Windows рекомендуется использовать VLC media player


Показать сообщения:    

Текущее время: 21-Май 08:12

Часовой пояс: UTC + 3


Вы не можете начинать темы
Вы не можете отвечать на сообщения
Вы не можете редактировать свои сообщения
Вы не можете удалять свои сообщения
Вы не можете голосовать в опросах
Вы не можете прикреплять файлы к сообщениям
Вы не можете скачивать файлы

!ВНИМАНИЕ!
Сайт не предоставляет электронные версии произведений, а занимается лишь коллекционированием и каталогизацией ссылок, присылаемых и публикуемых на форуме нашими читателями. Если вы являетесь правообладателем какого-либо представленного материала и не желаете, чтобы ссылка на него находилась в нашем каталоге, свяжитесь с нами, и мы незамедлительно удалим ее. Файлы для обмена на трекере предоставлены пользователями сайта, и администрация не несет ответственности за их содержание. Просьба не заливать файлы, защищенные авторскими правами, а также файлы нелегального содержания!