۩ ‼ Вы находитесь на Бесплатном торрент-трекере TORRNADA.com ۩ Зарегистрируйтесь для получения полного доступа ко всем функциям сайта ! ۩ После регистрации подпишитесь на нашу рассылку в своём профиле ۩
Auto Web Pinger

 

[Цитировать]

Потоп / Potop (1974) DVDRip- Производство: Польша, СССР
Жанр: Драма, история, военный, приключения
Режиссер: Ежи Гоффман
Актеры: Даниэль Ольбрыхский, Малгожата Браунек, Тадеуш Ломницкий, Казимеж Вихняж, Владислав Ханьча, Лешек Телешиньский, Рышард Филипский, Веслава Мазуркевич, Франчишек Печка, Леслав Яницкий
Описание:
Историческая эпопея Генрика Сенкевича, охватывающая события XYII века войны Речи Посполитой со шведами. Сложно складываются отношения главных героев Анджея Кмитица и Оленьки Биллевич. Волею судьбы Кмитиц связан клятвою с отступником Гетманом. Он оказывается в стане врагов и вынужден воевать против своих. Друзья считают его предателем, Оленька отказывается от него, а шведы прославляют. На долю Анджея выпадают тяжелые душевные и физические страдания. Но ценою своих ран, плена, героических подвигов ему удается возвратить себе родину, любимую и друзей.

Продолжительность: 2 х ~ 02:25:00
Качество видео: DVDRip
Перевод: Дублированный
Видео: XviD, 672x336, ~ 2000 Кбит/с
Аудио: AC3, 2 ch, 192 Кбит/с

MediaInfo:

Общее
Полное имя : C:\NNM\Потоп\Potop 1974 DVDRip\part-2.avi
Формат : AVI
Формат/Информация : Audio Video Interleave
Профиль формата : OpenDML
Размер файла : 2,05 Гбайт
Продолжительность : 2 ч. 24 м.
Общий поток : 2251 Кбит/сек
Программа кодирования : VirtualDubMod 1.5.10.2 (build 2540/release)
Библиотека кодирования : VirtualDubMod build 2540/release
Видео
Идентификатор : 0
Формат : MPEG-4 Visual
Профиль формата : Advanced Simple@L5
Параметр BVOP формата : 1
Параметр QPel формата : Нет
Параметр GMC формата : Без точки перехода
Параметр матрицы формата : Default (MPEG)
Режим смешивания : Сжатый битовый поток
Идентификатор кодека : XVID
Идентификатор кодека/Подсказка : XviD
Продолжительность : 2 ч. 24 м.
Битрейт : 2047 Кбит/сек
Ширина : 672 пикселя
Высота : 336 пикселей
Соотношение сторон : 2,000
Частота кадров : 25,000 кадров/сек
Цветовое пространство : YUV
Субдискретизация насыщенности : 4:2:0
Битовая глубина : 8 бит
Тип развёртки : Прогрессивная
Метод сжатия : С потерями
Бит/(Пиксели*Кадры) : 0.363
Размер потока : 1,87 Гбайт (91%)
Библиотека кодирования : XviD 1.2.1 (UTC 2008-12-04)
Аудио
Идентификатор : 1
Формат : AC-3
Формат/Информация : Audio Coding 3
Расширение режима : CM (complete main)
Идентификатор кодека : 2000
Продолжительность : 2 ч. 24 м.
Вид битрейта : Постоянный
Битрейт : 192 Кбит/сек
Каналы : 2 канала
Расположение каналов : Front: L R
Частота : 48,0 КГц
Битовая глубина : 16 бит
Метод сжатия : С потерями
Размер потока : 179 Мбайт (9%)
Выравнивание : Разделение по промежуткам
Продолжительность промежутка : 40 мс. (1,00 видеокадр)
Время предзагрузки промежутка : 500 мс.
Скриншоты: Не жилим спасибо. Не забываем голосовать за трекер!!!


Показать сообщения:    

Текущее время: 24-Май 08:39

Часовой пояс: UTC + 3


Вы не можете начинать темы
Вы не можете отвечать на сообщения
Вы не можете редактировать свои сообщения
Вы не можете удалять свои сообщения
Вы не можете голосовать в опросах
Вы не можете прикреплять файлы к сообщениям
Вы не можете скачивать файлы

!ВНИМАНИЕ!
Сайт не предоставляет электронные версии произведений, а занимается лишь коллекционированием и каталогизацией ссылок, присылаемых и публикуемых на форуме нашими читателями. Если вы являетесь правообладателем какого-либо представленного материала и не желаете, чтобы ссылка на него находилась в нашем каталоге, свяжитесь с нами, и мы незамедлительно удалим ее. Файлы для обмена на трекере предоставлены пользователями сайта, и администрация не несет ответственности за их содержание. Просьба не заливать файлы, защищенные авторскими правами, а также файлы нелегального содержания!