۩ ‼ Вы находитесь на Бесплатном торрент-трекере TORRNADA.com ۩ Зарегистрируйтесь для получения полного доступа ко всем функциям сайта ! ۩ После регистрации подпишитесь на нашу рассылку в своём профиле ۩
Auto Web Pinger

 

[Цитировать]

Эволюция Борна / The Bourne Legacy (2012) BDRip [H.264]
« В игре всегда несколько фигур »
- Производство: США, Япония | Universal Pictures, The Kennedy/Marshall Company, Relativity Media, Dentsu, Captivate Entertainment, Bourne Four Productions, Bourne Film Productions
Жанр: Боевик, Триллер, Детектив, Приключения
Режиссер: Тони Гилрой
Актеры: Джереми Реннер, Рэйчел Вайс, Эдвард Нортон, Стейси Кич, Оскар Айзек, Желько Иванек, Донна Мерфи, Майкл Чернус, Кори Столл, Элизабет Марвел, Джоан Аллен, Альберт Финни, Скотт Гленн, Дэвид Стрэтэйрн, Кори Джонсон, Элис Гейнер
Описание: В игре всегда несколько фигур. Одна из них - Джейсон Борн, другая - совершенный агент Аарон Кросс. Их возможности безграничны. Но даже у идеального оружия бывают сбои…

Возраст: 16+ Зрителям, достигшим 16 лет
Рейтинг MPAA: PG-13 Детям до 13 лет просмотр не желателен
Продолжительность: 02:14:55
Качество видео: BDRip
Перевод: Профессиональный дублированный, авторский, любительский
Вид субтитров: Вшитые отключаемые
Язык субтитров: Русский (Forced, Full), Английский
Видео: MPEG-4 AVC/H.264, 2700 Kbps, 1024 x 426
Аудио 1: Русский AC3 5.1, 448 Kbps, 48.0 KHz (Полное дублирование) Blu-ray CEE
Аудио 2: Русский AC3 5.1, 448 Kbps, 48.0 KHz (Одноголосый закадровый) Ю. Живов
Аудио 3: Русский AC3 5.1, 448 Kbps, 48.0 KHz (Одноголосый закадровый) Л. Володарский
Аудио 4: Русский AC3 5.1, 448 Kbps, 48.0 KHz (Одноголосый закадровый) А. Киреев
Аудио 5: Русский AC3 5.1, 448 Kbps, 48.0 KHz (Одноголосый закадровый) А. Дасевич
Аудио 6: Английский AC3 5.1, 448 Kbps, 48.0 KHz (Оригинал)

MediaInfo

Общее
Полное имя                               : Эволюция Борна.mkv
Формат                                   : Matroska
Версия формата                           : Version 1
Размер файла                             : 5,07 Гбайт
Продолжительность                        : 2 ч. 15 м.
Общий поток                              : 5378 Кбит/сек
Дата кодирования                         : UTC 2015-07-07 19:21:02
Программа кодирования                    : mkvmerge v2.4.1 ('Use Me') built on Dec  5 2008 18:30:05
Библиотека кодирования                   : libebml v0.7.7 + libmatroska v0.8.1
Видео
Идентификатор                            : 1
Формат                                   : AVC
Формат/Информация                        : Advanced Video Codec
Профиль формата                          : High@L4.1
Параметр CABAC формата                   : Да
Параметр ReFrames формата                : 10 кадров
Идентификатор кодека                     : V_MPEG4/ISO/AVC
Продолжительность                        : 2 ч. 15 м.
Битрейт                                  : 2700 Кбит/сек
Ширина                                   : 1024 пикселя
Высота                                   : 426 пикселей
Соотношение сторон                       : 2,40:1
Режим частоты кадров                     : Постоянный
Частота кадров                           : 23,976 кадра/сек
Цветовое пространство                    : YUV
Субдискретизация насыщенности            : 4:2:0
Битовая глубина                          : 8 бит
Тип развёртки                            : Прогрессивная
Бит/(Пиксели*Кадры)                      : 0.258
Размер потока                            : 2,44 Гбайт (48%)
Заголовок                                : Эволюция Борна (2012)
Библиотека кодирования                   : x264 core 146 r2538 121396c
Настройки программы                      : cabac=1 / ref=10 / deblock=1:-3:-3 / analyse=0x3:0x133 / me=umh / subme=10 / psy=1 / psy_rd=1.00:0.10 / mixed_ref=1 / me_range=48 / chroma_me=1 / trellis=2 / 8x8dct=1 / cqm=0 / deadzone=21,11 / fast_pskip=0 / chroma_qp_offset=-3 / threads=6 / lookahead_threads=1 / sliced_threads=0 / nr=0 / decimate=1 / interlaced=0 / bluray_compat=0 / constrained_intra=0 / bframes=5 / b_pyramid=2 / b_adapt=2 / b_bias=0 / direct=3 / weightb=1 / open_gop=0 / weightp=2 / keyint=240 / keyint_min=22 / scenecut=40 / intra_refresh=0 / rc_lookahead=40 / rc=2pass / mbtree=1 / bitrate=2700 / ratetol=1.0 / qcomp=0.60 / qpmin=10 / qpmax=51 / qpstep=4 / cplxblur=20.0 / qblur=0.5 / ip_ratio=1.40 / aq=1:1.00
Язык                                     : English
Default                                  : Да
Forced                                   : Нет
Аудио #1
Идентификатор                            : 2
Формат                                   : AC-3
Формат/Информация                        : Audio Coding 3
Расширение режима                        : CM (complete main)
Параметр Endianness формата              : Big
Идентификатор кодека                     : A_AC3
Продолжительность                        : 2 ч. 15 м.
Вид битрейта                             : Постоянный
Битрейт                                  : 448 Кбит/сек
Каналы                                   : 6 каналов
Расположение каналов                     : Front: L C R, Side: L R, LFE
Частота                                  : 48,0 КГц
Битовая глубина                          : 16 бит
Метод сжатия                             : С потерями
Размер потока                            : 433 Мбайт (8%)
Заголовок                                : AC3 (Дублированный) Blu-ray CEE
Язык                                     : Russian
Default                                  : Да
Forced                                   : Нет
Аудио #2
Идентификатор                            : 3
Формат                                   : AC-3
Формат/Информация                        : Audio Coding 3
Расширение режима                        : CM (complete main)
Параметр Endianness формата              : Big
Идентификатор кодека                     : A_AC3
Продолжительность                        : 2 ч. 15 м.
Вид битрейта                             : Постоянный
Битрейт                                  : 448 Кбит/сек
Каналы                                   : 6 каналов
Расположение каналов                     : Front: L C R, Side: L R, LFE
Частота                                  : 48,0 КГц
Битовая глубина                          : 16 бит
Метод сжатия                             : С потерями
Размер потока                            : 433 Мбайт (8%)
Заголовок                                : AC3 (Одноголосый) Ю. Живов
Язык                                     : Russian
Default                                  : Нет
Forced                                   : Нет
Аудио #3
Идентификатор                            : 4
Формат                                   : AC-3
Формат/Информация                        : Audio Coding 3
Расширение режима                        : CM (complete main)
Параметр Endianness формата              : Big
Идентификатор кодека                     : A_AC3
Продолжительность                        : 2 ч. 15 м.
Вид битрейта                             : Постоянный
Битрейт                                  : 448 Кбит/сек
Каналы                                   : 6 каналов
Расположение каналов                     : Front: L C R, Side: L R, LFE
Частота                                  : 48,0 КГц
Битовая глубина                          : 16 бит
Метод сжатия                             : С потерями
Размер потока                            : 433 Мбайт (8%)
Заголовок                                : AC3 (Одноголосый) Л. Володарский
Язык                                     : Russian
Default                                  : Нет
Forced                                   : Нет
Аудио #4
Идентификатор                            : 5
Формат                                   : AC-3
Формат/Информация                        : Audio Coding 3
Расширение режима                        : CM (complete main)
Параметр Endianness формата              : Big
Идентификатор кодека                     : A_AC3
Продолжительность                        : 2 ч. 15 м.
Вид битрейта                             : Постоянный
Битрейт                                  : 448 Кбит/сек
Каналы                                   : 6 каналов
Расположение каналов                     : Front: L C R, Side: L R, LFE
Частота                                  : 48,0 КГц
Битовая глубина                          : 16 бит
Метод сжатия                             : С потерями
Размер потока                            : 433 Мбайт (8%)
Заголовок                                : AC3 (Одноголосый) А. Киреев
Язык                                     : Russian
Default                                  : Нет
Forced                                   : Нет
Аудио #5
Идентификатор                            : 6
Формат                                   : AC-3
Формат/Информация                        : Audio Coding 3
Расширение режима                        : CM (complete main)
Параметр Endianness формата              : Big
Идентификатор кодека                     : A_AC3
Продолжительность                        : 2 ч. 15 м.
Вид битрейта                             : Постоянный
Битрейт                                  : 448 Кбит/сек
Каналы                                   : 6 каналов
Расположение каналов                     : Front: L C R, Side: L R, LFE
Частота                                  : 48,0 КГц
Битовая глубина                          : 16 бит
Метод сжатия                             : С потерями
Размер потока                            : 433 Мбайт (8%)
Заголовок                                : AC3 (Одноголосый) А. Дасевич
Язык                                     : Russian
Default                                  : Нет
Forced                                   : Нет
Аудио #6
Идентификатор                            : 7
Формат                                   : AC-3
Формат/Информация                        : Audio Coding 3
Расширение режима                        : CM (complete main)
Параметр Endianness формата              : Big
Идентификатор кодека                     : A_AC3
Продолжительность                        : 2 ч. 15 м.
Вид битрейта                             : Постоянный
Битрейт                                  : 448 Кбит/сек
Каналы                                   : 6 каналов
Расположение каналов                     : Front: L C R, Side: L R, LFE
Частота                                  : 48,0 КГц
Битовая глубина                          : 16 бит
Метод сжатия                             : С потерями
Размер потока                            : 433 Мбайт (8%)
Заголовок                                : AC3 (Оригинал)
Язык                                     : English
Default                                  : Нет
Forced                                   : Нет
Текст #1
Идентификатор                            : 8
Формат                                   : UTF-8
Идентификатор кодека                     : S_TEXT/UTF8
Идентификатор кодека/Информация          : UTF-8 Plain Text
Заголовок                                : Русские (Форсированные)
Язык                                     : Russian
Default                                  : Да
Forced                                   : Нет
Текст #2
Идентификатор                            : 9
Формат                                   : UTF-8
Идентификатор кодека                     : S_TEXT/UTF8
Идентификатор кодека/Информация          : UTF-8 Plain Text
Заголовок                                : Русские
Язык                                     : Russian
Default                                  : Нет
Forced                                   : Нет
Текст #3
Идентификатор                            : 10
Формат                                   : UTF-8
Идентификатор кодека                     : S_TEXT/UTF8
Идентификатор кодека/Информация          : UTF-8 Plain Text
Заголовок                                : Английские
Язык                                     : English
Default                                  : Нет
Forced                                   : Нет

Дополнительная информация

» Фильм снят по мотивам серии романов Роберта Ладлэма о Джейсоне Борне (1980 — 1990).
» Слова «No More», написанные на зеркале в номере отеля, это анаграмма вымышленной фамилии, которую Кросс дал Марте — «Monroe».
» Прежде чем этот фильм серьезно решили снимать, режиссер Пол Гринграсс в шутку предложил назвать четвертый фильм о Борне как «Чрезмерность Борна».
» Джейк Джилленхол, Тоби Магуайр, Гаррет Хедлунд, Майкл Фассбендер, Алекс Петтифер, Джоэл Эдгертон, Тейлор Китч, Келлан Латс, Джош Хартнетт, Пол Дано, Люк Эванс, Майкл Питт, Оскар Айзек, Бенджамин Уокер и Эррин Аркин рассматривались на главную роль.
» Мэтт Дэймон отказался от роли Джейсона Борна, так как не хотел сниматься в фильме без участия Пола Гринграсса (режиссёра фильмов «Превосходство Борна» и «Ультиматум Борна»), поэтому сценаристы создали нового протагониста.
» Гонорар Джереми Реннера за исполнение главной роли в этом фильме составляет $ 5 000 000, что намного меньше чем у Мэтта Дэймона («Идентификация Борна» — $ 10 000 000, «Превосходство Борна» — $ 10 000 000, «Ультиматум Борна» — $ 20 000 000).
» Когда Джереми Реннера спросили, какие сцены для него были самыми трудными, он ответил, что это были сцены с ездой на мотоцикле в Маниле с Рэйчел Вайс сидящей позади него, потому что в эти моменты он был ответственным за них обоих. На пресс-конференции фильма Вайс был задан вопрос об этой же сцене: «Каково это было ездить на мотоцикле по Маниле с Джереми Реннером?». На что она ответила: «Это было действительно страшно! Джереми никогда не говорил мне, когда мы были в Маниле, но это был самый страшный трюк для него, потому что он был ответственным за мою жизнь. Он никогда не говорил мне этого в Маниле, и слава богу, потому что это напугало бы меня еще сильней. Мне же даже не приходилось ничего делать, только держаться за Реннера. Это было просто страшно».
» Фильм поставлялся в кинотеатры под кодовым названием «Демонстрант». Именно под этим поддельным названием проходили съемки фильма.
Скриншоты:
Не жилим спасибо. Не забываем голосовать за трекер!!!


Показать сообщения:    

Текущее время: 21-Май 03:32

Часовой пояс: UTC + 3


Вы не можете начинать темы
Вы не можете отвечать на сообщения
Вы не можете редактировать свои сообщения
Вы не можете удалять свои сообщения
Вы не можете голосовать в опросах
Вы не можете прикреплять файлы к сообщениям
Вы не можете скачивать файлы

!ВНИМАНИЕ!
Сайт не предоставляет электронные версии произведений, а занимается лишь коллекционированием и каталогизацией ссылок, присылаемых и публикуемых на форуме нашими читателями. Если вы являетесь правообладателем какого-либо представленного материала и не желаете, чтобы ссылка на него находилась в нашем каталоге, свяжитесь с нами, и мы незамедлительно удалим ее. Файлы для обмена на трекере предоставлены пользователями сайта, и администрация не несет ответственности за их содержание. Просьба не заливать файлы, защищенные авторскими правами, а также файлы нелегального содержания!