۩ ‼ Вы находитесь на Бесплатном торрент-трекере TORRNADA.com ۩ Зарегистрируйтесь для получения полного доступа ко всем функциям сайта ! ۩ После регистрации подпишитесь на нашу рассылку в своём профиле ۩
Auto Web Pinger

 

[Цитировать]

Информация о фильме
Название: Ленинград - Нашествие 2015
Год выхода: 2015
Жанр: Концерт
О фильме:
Выступление группы Ленинград и Сергея Шнурова 3 июля на Главной сцене рок-фестиваля "Нашествие 2015"
Страна: Россия
Продолжительность: 00:50:23
Файл
Качество: WEBRip 720p
Видео: MPEG-4 AVC, 2141 Кбит/с, 30 кадр/с, 1280х720
Звук: AAC, 2 ch, 126 Кбит/с

MediaInfo:

General
Complete name : G:Ленинград - НАШЕствие 2015 FilmRus.mp4
Format : MPEG-4
Format profile : Base Media
Codec ID : isom
File size : 820 MiB
Duration : 50mn 23s
Overall bit rate : 2 275 Kbps
Writing application : Lavf55.33.100
Video #1
ID : 1
Format : AVC
Format/Info : Advanced Video Codec
Format profile : Main@L3.1
Format settings, CABAC : Yes
Format settings, ReFrames : 3 frames
Codec ID : avc1
Codec ID/Info : Advanced Video Coding
Duration : 50mn 23s
Duration_FirstFrame : -33ms
Bit rate : 2 141 Kbps
Width : 1 280 pixels
Height : 720 pixels
Display aspect ratio : 16:9
Frame rate mode : Variable
Frame rate : 30.000 fps
Minimum frame rate : 30.000 fps
Maximum frame rate : 30.020 fps
Color space : YUV
Chroma subsampling : 4:2:0
Bit depth : 8 bits
Scan type : Progressive
Bits/(Pixel*Frame) : 0.077
Stream size : 772 MiB (94%)
Audio #2
ID : 2
Format : AAC
Format/Info : Advanced Audio Codec
Format profile : LC
Codec ID : 40
Duration : 50mn 23s
Bit rate mode : Constant
Bit rate : 126 Kbps
Channel(s) : 2 channels
Channel positions : Front: L R
Sampling rate : 44.1 KHz
Compression mode : Lossy
Stream size : 45.3 MiB (6%)

Внимание!

Содержит нецензурную лексику!
В момент трансляции иногда заметны рассыпания картинки.

Скриншоты


Релиз от: by music80Не жилим спасибо. Не забываем голосовать за трекер!!!


Показать сообщения:    

Текущее время: 19-Май 18:15

Часовой пояс: UTC + 3


Вы не можете начинать темы
Вы не можете отвечать на сообщения
Вы не можете редактировать свои сообщения
Вы не можете удалять свои сообщения
Вы не можете голосовать в опросах
Вы не можете прикреплять файлы к сообщениям
Вы не можете скачивать файлы

!ВНИМАНИЕ!
Сайт не предоставляет электронные версии произведений, а занимается лишь коллекционированием и каталогизацией ссылок, присылаемых и публикуемых на форуме нашими читателями. Если вы являетесь правообладателем какого-либо представленного материала и не желаете, чтобы ссылка на него находилась в нашем каталоге, свяжитесь с нами, и мы незамедлительно удалим ее. Файлы для обмена на трекере предоставлены пользователями сайта, и администрация не несет ответственности за их содержание. Просьба не заливать файлы, защищенные авторскими правами, а также файлы нелегального содержания!