۩ ‼ Вы находитесь на Бесплатном торрент-трекере TORRNADA.com ۩ Зарегистрируйтесь для получения полного доступа ко всем функциям сайта ! ۩ После регистрации подпишитесь на нашу рассылку в своём профиле ۩
Auto Web Pinger

 

[Цитировать]

Пионеры-герои (2015) WEB-DL [H.264/1080-LQ]- Производство: Россия / Кинокомпания CTB
Жанр: драма
Режиссер: Наталья Кудряшова
Продюсер: Сергей Сельянов, Андрей Рыданов
Актеры: Наталья Кудряшова, Дарья Мороз, Алексей Митин, Александр Усердин, Светлана Письмиченко, Ёла Санько, Юрий Кузнецов, Александр Обласов, Владимир Капустин, Жанна Демихова
Описание:
Ольга, Катя и Андрей давно приехали в Москву, они дружат со школы. Они вполне успешны. Ольга — актриса, Катя — работает в крупном PR-агентстве, Андрей политический аналитик. Они покупают машины, берут ипотеки, строят дачи. Живут как все. Но это не приносит им ни счастья, ни удовлетворения. Ощущение, «что все вроде нормально, но что-то не так» — лейтмотив жизни сегодняшних тридцатилетних. Их детство пришлось на советскую пору — когда дети мечтали о подвигах, верили в шпионов и светлое будущее, и никто не ожидал, что мечту о подвиге заменит мечта о стабильности. Люди больше не мечтают о великом. Они просто живут...

Возраст: 16+
Дата мировой премьеры: 6 февраля 2015
Дата российской премьеры: 18 июня 2015, «Наше Кино»
Продолжительность: 01:55:22
Качество: WEB-DL (1080p)
Перевод: не требуется
Субтитры: отсутствуют
Видео: MPEG-4 AVC/H.264, 1920x800 (2,40:1), 4 349 kbps, 24.000 fps, 0.118 b/px
Аудио: АС3, 6 ch, 384 kbps, 48 000 Hz - оригинальный - iTunes Russia

MediaInfo

Общее
Уникальный идентификатор                 : 252556214073448878740412507837612729546 (0xBE008EBA736508458178022425C8A4CA)
Полное имя                               : E:\[2015] Пионеры-герои [WEB-DL] [1080p].mkv
Формат                                   : Matroska
Версия формата                           : Version 4 / Version 2
Размер файла                             : 3,89 Гбайт
Продолжительность                        : 1 ч. 55 м.
Общий поток                              : 4829 Кбит/сек
Название фильма                          : Пионеры-герои (2015) WEB-DL [1080p]
Дата кодирования                         : UTC 2015-07-07 07:42:29
Программа кодирования                    : mkvmerge v7.8.0 ('River Man') 32bit built on Mar 27 2015 16:18:02
Библиотека кодирования                   : libebml v1.3.1 + libmatroska v1.4.2
DURATION                                 : 01:55:22.144000000
NUMBER_OF_FRAMES                         : 216317
NUMBER_OF_BYTES                          : 332262912
_STATISTICS_WRITING_APP                  : mkvmerge v7.8.0 ('River Man') 32bit built on Mar 27 2015 16:18:02
_STATISTICS_WRITING_DATE_UTC             : 2015-07-07 07:42:29
_STATISTICS_TAGS                         : BPS DURATION NUMBER_OF_FRAMES NUMBER_OF_BYTES
Видео
Идентификатор                            : 1
Формат                                   : AVC
Формат/Информация                        : Advanced Video Codec
Профиль формата                          : High@L4
Параметр CABAC формата                   : Да
Параметр ReFrames формата                : 5 кадров
Идентификатор кодека                     : V_MPEG4/ISO/AVC
Продолжительность                        : 1 ч. 55 м.
Битрейт                                  : 4349 Кбит/сек
Ширина                                   : 1920 пикселей
Высота                                   : 800 пикселей
Соотношение сторон                       : 2,40:1
Режим частоты кадров                     : Постоянный
Частота кадров                           : 24,000 кадра/сек
Цветовое пространство                    : YUV
Субдискретизация насыщенности            : 4:2:0
Битовая глубина                          : 8 бит
Тип развёртки                            : Прогрессивная
Бит/(Пиксели*Кадры)                      : 0.118
Размер потока                            : 3,50 Гбайт (90%)
Заголовок                                : [2015] Пионеры-герои [WEB-DL] [1080p]
Язык                                     : Russian
Default                                  : Да
Forced                                   : Нет
Цветовой диапазон                        : Limited
Основные цвета                           : BT.709
Характеристики трансфера                 : BT.709
Коэффициенты матрицы                     : BT.709
Аудио
Идентификатор                            : 2
Формат                                   : AC-3
Формат/Информация                        : Audio Coding 3
Расширение режима                        : CM (complete main)
Параметр Endianness формата              : Big
Идентификатор кодека                     : A_AC3
Продолжительность                        : 1 ч. 55 м.
Вид битрейта                             : Постоянный
Битрейт                                  : 384 Кбит/сек
Каналы                                   : 6 каналов
Расположение каналов                     : Front: L C R, Side: L R, LFE
Частота                                  : 48,0 КГц
Метод сжатия                             : С потерями
Размер потока                            : 317 Мбайт (8%)
Заголовок                                : Оригинальный - iTunes Russia
Язык                                     : Russian
Default                                  : Да
Forced                                   : Нет
Меню
00:00:00.000                             : en:Глава 1
00:04:52.000                             : en:Глава 2
00:10:07.000                             : en:Глава 3
00:13:42.000                             : en:Глава 4
00:18:43.000                             : en:Глава 5
00:22:49.000                             : en:Глава 6
00:27:32.000                             : en:Глава 7
00:33:51.000                             : en:Глава 8
00:38:00.000                             : en:Глава 9
00:43:36.000                             : en:Глава 10
00:52:21.000                             : en:Глава 11
00:58:53.000                             : en:Глава 12
01:05:41.000                             : en:Глава 13
01:12:23.000                             : en:Глава 14
01:16:59.000                             : en:Глава 15
01:22:17.000                             : en:Глава 16
01:29:02.000                             : en:Глава 17
01:33:45.000                             : en:Глава 18
01:38:15.000                             : en:Глава 19
01:42:53.000                             : en:Глава 20

Награды и премии

Берлинский кинофестиваль, 2015 год
Номинации (1):
*** Лучший дебют (Наталья Кудряшова)
Кинотавр, 2015 год
Победитель (1):
*** Диплом гильдии киноведов и кинокритиков
Номинации (1):
*** Главный приз
Скриншоты:
Не жилим спасибо. Не забываем голосовать за трекер!!!


Показать сообщения:    

Текущее время: 21-Май 11:48

Часовой пояс: UTC + 3


Вы не можете начинать темы
Вы не можете отвечать на сообщения
Вы не можете редактировать свои сообщения
Вы не можете удалять свои сообщения
Вы не можете голосовать в опросах
Вы не можете прикреплять файлы к сообщениям
Вы не можете скачивать файлы

!ВНИМАНИЕ!
Сайт не предоставляет электронные версии произведений, а занимается лишь коллекционированием и каталогизацией ссылок, присылаемых и публикуемых на форуме нашими читателями. Если вы являетесь правообладателем какого-либо представленного материала и не желаете, чтобы ссылка на него находилась в нашем каталоге, свяжитесь с нами, и мы незамедлительно удалим ее. Файлы для обмена на трекере предоставлены пользователями сайта, и администрация не несет ответственности за их содержание. Просьба не заливать файлы, защищенные авторскими правами, а также файлы нелегального содержания!