۩ ‼ Вы находитесь на Бесплатном торрент-трекере TORRNADA.com ۩ Зарегистрируйтесь для получения полного доступа ко всем функциям сайта ! ۩ После регистрации подпишитесь на нашу рассылку в своём профиле ۩
Auto Web Pinger

 

[Цитировать]

Без тормозов / The Wild Life (1984) BDRip [H.264/1080p] [EN] - Производство: США
Жанр: Драма, Комедия
Режиссер: Арт Линсон
Актеры: Крис Пенн, Илан Митчелл-Смит, Эрик Столц, Дженни Райт, Лиа Томпсон, Брин Берлинер, Рик Морэнис, Харт Бокнер, Сьюзэн Райнелл, Кери Энн Уордер
Описание:
Том Дрейк, лучший борец в школе, влюблен в Айлин. Однако Айлин относится к мужчинам как к существам низшего сорта, и все из-за похотливого босса девушки. Выпускник школы Билл Конрад неожиданно разрывает отношения со своей подружкой Анитой. В отместку она заводит роман с взрослым мужчиной…

Продолжительность: 01:36:02
Качество видео: BDRip
Перевод: Отсутствует
Язык озвучки: Английский
Видео: AVC/H.264, 1920x1072, ~10000 kbps
Аудио: AC3, 2 ch, 384 kbps, CBR

Mediainfo:

General
Complete name                    : D:\Downloads\The Wild Life (1984).mkv
Format                           : Matroska
File size                        : 6.91 GiB
Duration                         : 1h 36mn
Overall bit rate                 : 10.3 Mbps
Encoded date                     : UTC 2015-01-26 14:13:45
Writing application              : mkvmerge v5.8.0 ('No Sleep / Pillow') built on Sep  2 2012 15:37:04
Writing library                  : libebml v1.2.3 + libmatroska v1.3.0
Video
ID                               : 1
Format                           : AVC
Format/Info                      : Advanced Video Codec
Format profile                   : High@L4.1
Format settings, CABAC           : Yes
Format settings, ReFrames        : 4 frames
Muxing mode                      : Container profile=Unknown@4.1
Codec ID                         : V_MPEG4/ISO/AVC
Duration                         : 1h 36mn
Bit rate                         : 10 000 Kbps
Width                            : 1 920 pixels
Height                           : 1 072 pixels
Display aspect ratio             : 16:9
Frame rate                       : 23.976 fps
Color space                      : YUV
Chroma subsampling               : 4:2:0
Bit depth                        : 8 bits
Scan type                        : Progressive
Bits/(Pixel*Frame)               : 0.203
Stream size                      : 6.52 GiB (94%)
Writing library                  : x264 core 142 r2479 dd79a61
Encoding settings                : cabac=1 / ref=3 / deblock=1:0:0 / analyse=0x3:0x113 / me=hex / subme=7 / psy=1 / psy_rd=1.00:0.00 / mixed_ref=1 / me_range=16 / chroma_me=1 / trellis=1 / 8x8dct=1 / cqm=0 / deadzone=21,11 / fast_pskip=1 / chroma_qp_offset=-2 / threads=12 / lookahead_threads=2 / sliced_threads=0 / nr=0 / decimate=1 / interlaced=0 / bluray_compat=0 / constrained_intra=0 / bframes=3 / b_pyramid=2 / b_adapt=1 / b_bias=0 / direct=1 / weightb=1 / open_gop=0 / weightp=2 / keyint=240 / keyint_min=24 / scenecut=40 / intra_refresh=0 / rc_lookahead=40 / rc=abr / mbtree=1 / bitrate=10000 / ratetol=1.0 / qcomp=0.60 / qpmin=0 / qpmax=69 / qpstep=4 / vbv_maxrate=62500 / vbv_bufsize=78125 / nal_hrd=none / filler=0 / ip_ratio=1.40 / aq=1:1.00
Color primaries                  : BT.709-5, BT.1361, IEC 61966-2-4, SMPTE RP177
Transfer characteristics         : BT.709-5, BT.1361
Matrix coefficients              : BT.709-5, BT.1361, IEC 61966-2-4 709, SMPTE RP177
Audio
ID                               : 2
Format                           : AC-3
Format/Info                      : Audio Coding 3
Mode extension                   : CM (complete main)
Muxing mode                      : Header stripping
Codec ID                         : A_AC3
Duration                         : 1h 36mn
Bit rate mode                    : Constant
Bit rate                         : 384 Kbps
Channel(s)                       : 2 channels
Channel positions                : Front: L R
Sampling rate                    : 48.0 KHz
Bit depth                        : 16 bits
Stream size                      : 264 MiB (4%)
Title                            : Stereo
Language                         : English
Menu
00:00:00.000                     : :Chapter 1
00:01:37.014                     : :Chapter 2
00:04:37.277                     : :Chapter 3
00:08:21.209                     : :Chapter 4
00:13:18.756                     : :Chapter 5
00:17:49.694                     : :Chapter 6
00:24:37.768                     : :Chapter 7
00:33:31.676                     : :Chapter 8
00:35:59.032                     : :Chapter 9
00:43:13.090                     : :Chapter 10
00:46:17.108                     : :Chapter 11
00:49:42.605                     : :Chapter 12
00:51:01.850                     : :Chapter 13
00:56:04.194                     : :Chapter 14
01:04:17.020                     : :Chapter 15
01:12:00.358                     : :Chapter 16
01:19:26.428                     : :Chapter 17
01:26:27.516                     : :Chapter 18
01:31:28.775                     : :Chapter 19
Скриншоты:
Не жилим спасибо. Не забываем голосовать за трекер!!!


Показать сообщения:    

Текущее время: 21-Май 12:29

Часовой пояс: UTC + 3


Вы не можете начинать темы
Вы не можете отвечать на сообщения
Вы не можете редактировать свои сообщения
Вы не можете удалять свои сообщения
Вы не можете голосовать в опросах
Вы не можете прикреплять файлы к сообщениям
Вы не можете скачивать файлы

!ВНИМАНИЕ!
Сайт не предоставляет электронные версии произведений, а занимается лишь коллекционированием и каталогизацией ссылок, присылаемых и публикуемых на форуме нашими читателями. Если вы являетесь правообладателем какого-либо представленного материала и не желаете, чтобы ссылка на него находилась в нашем каталоге, свяжитесь с нами, и мы незамедлительно удалим ее. Файлы для обмена на трекере предоставлены пользователями сайта, и администрация не несет ответственности за их содержание. Просьба не заливать файлы, защищенные авторскими правами, а также файлы нелегального содержания!