۩ ‼ Вы находитесь на Бесплатном торрент-трекере TORRNADA.com ۩ Зарегистрируйтесь для получения полного доступа ко всем функциям сайта ! ۩ После регистрации подпишитесь на нашу рассылку в своём профиле ۩
Auto Web Pinger

 

[Цитировать]

Satoshi Tomiie - New Day (2015) - Год: 2015
Жанр: House
Продолжительность: 01:17:50
Страна: Japan
Лейбл: Abstract Architecture
Каталог: AA 001EP
Кодек: FLAC(tracks + .cue)
Битрейт: Lossless-Треклист:
01. Last Night (In This Dream I Watched A Film Of A Dream Within This Dream) [03:28]
02. Landscape [07:06]
03. Odyssey [06:52]
04. New Day (feat. John Schmersal) [06:11]
05. Nature Abstraite [06:47]
06. Thursday, 2AM [06:01]
07. Calm Me Up [06:47]
08. Momento Magico [08:49]
09. Wave Side Back [06:29]
10. 0814 [07:35]
11. Sinfonia [01:28]
12. Cucina Rossa [10:16]

Отчёт ЕАС:

Exact Audio Copy V1.0 beta 3 from 29. August 2011
EAC extraction logfile from 3. July 2015, 13:10
Satoshi Tomiie / New Day
Used drive  : ASUS    DRW-24B1ST   a   Adapter: 2  ID: 0
Read mode               : Secure
Utilize accurate stream : Yes
Defeat audio cache      : Yes
Make use of C2 pointers : No
Read offset correction                      : 6
Overread into Lead-In and Lead-Out          : No
Fill up missing offset samples with silence : Yes
Delete leading and trailing silent blocks   : No
Null samples used in CRC calculations       : Yes
Used interface                              : Native Win32 interface for Win NT & 2000
Gap handling                                : Appended to previous track
Used output format              : User Defined Encoder
Selected bitrate                : 1024 kBit/s
Quality                         : High
Add ID3 tag                     : No
Command line compressor         : C:\Program Files (x86)\Exact Audio Copy\Flac\flac.exe
Additional command line options : -8 -V -T "ARTIST=%artist%" -T "TITLE=%title%" -T "ALBUM=%albumtitle%" -T "DATE=%year%" -T "TRACKNUMBER=%tracknr%" -T "ALBUMARTIST=%albumartist%" %source% -o %dest%
TOC of the extracted CD
     Track |   Start  |  Length  | Start sector | End sector
    ---------------------------------------------------------
        1  |  0:00.00 |  3:28.35 |         0    |    15634
        2  |  3:28.35 |  7:05.71 |     15635    |    47580
        3  | 10:34.31 |  6:51.56 |     47581    |    78461
        4  | 17:26.12 |  6:11.04 |     78462    |   106290
        5  | 23:37.16 |  6:47.22 |    106291    |   136837
        6  | 30:24.38 |  6:01.25 |    136838    |   163937
        7  | 36:25.63 |  6:47.15 |    163938    |   194477
        8  | 43:13.03 |  8:49.21 |    194478    |   234173
        9  | 52:02.24 |  6:28.67 |    234174    |   263340
       10  | 58:31.16 |  7:34.40 |    263341    |   297430
       11  | 66:05.56 |  1:28.16 |    297431    |   304046
       12  | 67:33.72 | 10:15.74 |    304047    |   350245
Track  1
     Filename E:\EAC Rips 2\01 - Last Night (in This Dream I Watched a Film of a Dream Within This Dream).wav
     Pre-gap length  0:00:02.00
     Peak level 87.0 %
     Extraction speed 3.0 X
     Track quality 99.9 %
     Test CRC F9C434B4
     Copy CRC F9C434B4
     Track not present in AccurateRip database
     Copy OK
Track  2
     Filename E:\EAC Rips 2\02 - Landscape.wav
     Peak level 87.0 %
     Extraction speed 4.0 X
     Track quality 99.9 %
     Test CRC 3D4F1FA9
     Copy CRC 3D4F1FA9
     Track not present in AccurateRip database
     Copy OK
Track  3
     Filename E:\EAC Rips 2\03 - Odyssey.wav
     Peak level 87.0 %
     Extraction speed 5.2 X
     Track quality 100.0 %
     Test CRC 91C29B8A
     Copy CRC 91C29B8A
     Track not present in AccurateRip database
     Copy OK
Track  4
     Filename E:\EAC Rips 2\04 - New Day [feat. John Schmersal].wav
     Peak level 87.0 %
     Extraction speed 5.6 X
     Track quality 100.0 %
     Test CRC D71915FF
     Copy CRC D71915FF
     Track not present in AccurateRip database
     Copy OK
Track  5
     Filename E:\EAC Rips 2\05 - Nature Abstraite.wav
     Peak level 87.0 %
     Extraction speed 6.1 X
     Track quality 100.0 %
     Test CRC E68D0D44
     Copy CRC E68D0D44
     Track not present in AccurateRip database
     Copy OK
Track  6
     Filename E:\EAC Rips 2\06 - Thursday, 2AM.wav
     Peak level 87.0 %
     Extraction speed 6.4 X
     Track quality 100.0 %
     Test CRC 7CD8B39D
     Copy CRC 7CD8B39D
     Track not present in AccurateRip database
     Copy OK
Track  7
     Filename E:\EAC Rips 2\07 - Calm Me Up.wav
     Peak level 87.0 %
     Extraction speed 6.8 X
     Track quality 100.0 %
     Test CRC D1C144AB
     Copy CRC D1C144AB
     Track not present in AccurateRip database
     Copy OK
Track  8
     Filename E:\EAC Rips 2\08 - Momento Magico.wav
     Peak level 85.1 %
     Extraction speed 7.4 X
     Track quality 100.0 %
     Test CRC 0BFDB9FB
     Copy CRC 0BFDB9FB
     Track not present in AccurateRip database
     Copy OK
Track  9
     Filename E:\EAC Rips 2\09 - Wave Side Back.wav
     Peak level 87.0 %
     Extraction speed 7.6 X
     Track quality 100.0 %
     Test CRC 11BD0FD1
     Copy CRC 11BD0FD1
     Track not present in AccurateRip database
     Copy OK
Track 10
     Filename E:\EAC Rips 2\10 - 0814.wav
     Peak level 86.0 %
     Extraction speed 8.0 X
     Track quality 100.0 %
     Test CRC 56657ACD
     Copy CRC 56657ACD
     Track not present in AccurateRip database
     Copy OK
Track 11
     Filename E:\EAC Rips 2\11 - Sinfonia.wav
     Peak level 53.8 %
     Extraction speed 6.2 X
     Track quality 100.0 %
     Test CRC FD2CC8D5
     Copy CRC FD2CC8D5
     Track not present in AccurateRip database
     Copy OK
Track 12
     Filename E:\EAC Rips 2\12 - Cucina Rossa.wav
     Peak level 87.0 %
     Extraction speed 8.7 X
     Track quality 100.0 %
     Test CRC 848D5B55
     Copy CRC 848D5B55
     Track not present in AccurateRip database
     Copy OK
None of the tracks are present in the AccurateRip database
No errors occurred
End of status report
---- CUETools DB Plugin V2.1.3
[CTDB TOCID: CW._Sh3FarBvsqgkxTEyS_4bfBM-] found, Submit result: CW._Sh3FarBvsqgkxTEyS_4bfBM- has been confirmed
[a5f4b802] (1/1) Accurately ripped
==== Log checksum 18488DE9A1522A30E66E4568C1004962DA16697ED7080FBFAB53095E054E9C78 ====

Отчёт auCDtect Task manager:

-----------------------
DON'T MODIFY THIS FILE
-----------------------
PERFORMER: auCDtect Task Manager, ver. 1.6.0 RC1 build 1.6.0.1
Copyright (c) 2008-2010 y-soft. All rights reserved
http://y-soft.org
ANALYZER: auCDtect: CD records authenticity detector, version 0.8.2
Copyright (c) 2004 Oleg Berngardt. All rights reserved.
Copyright (c) 2004 Alexander Djourik. All rights reserved.
FILE: 12 - Cucina Rossa.flac
  Size: 68535091 Hash: B8B9B84FB8A4A615FBF8CC297428F602 Accuracy: -m0
  Conclusion: CDDA 99%
  Signature: 778C67B7AEE724961FEBEB2DEF4A031F0B5EC7A2
FILE: 11 - Sinfonia.flac
  Size: 9026242 Hash: 513106C29482E093D437D75F0D5B6D8B Accuracy: -m0
  Conclusion: CDDA 100%
  Signature: 6903842590A920F1CAB934C725B65F703E723958
FILE: 10 - 0814.flac
  Size: 52095361 Hash: 7975DAFE9D53F0B3B9B1C31736309CCE Accuracy: -m0
  Conclusion: CDDA 100%
  Signature: 29B8FB61D88ECC9EED10ABE1CEE4D7413DA3965B
FILE: 09 - Wave Side Back.flac
  Size: 42140215 Hash: A8519D0FC806B6069D4E382CF4D1CE35 Accuracy: -m0
  Conclusion: CDDA 100%
  Signature: 4BBBAE300F3CEB1ED6518606370A0BEC092702E8
FILE: 08 - Momento Magico.flac
  Size: 62345257 Hash: 3A60A0A767707E726D7CED16413772AF Accuracy: -m0
  Conclusion: CDDA 100%
  Signature: 89430BC50F783555177F78B3B4F5D2FD52BDC9D4
FILE: 07 - Calm Me Up.flac
  Size: 41380998 Hash: 9E90AF232165FE6B8E77FBAD392AFDB6 Accuracy: -m0
  Conclusion: CDDA 99%
  Signature: E9362079EC2BD3D5431CBDC9A01C2E3E877AB627
FILE: 06 - Thursday, 2AM.flac
  Size: 42098048 Hash: F2F3FC3D01740D7253C041E19AAEA3F7 Accuracy: -m0
  Conclusion: CDDA 100%
  Signature: B2B714705668F2A5C3CBEA95FDA43DFB9899B412
FILE: 05 - Nature Abstraite.flac
  Size: 47155111 Hash: DE06CE007993C6DD369A1D9A81AE9F28 Accuracy: -m0
  Conclusion: CDDA 100%
  Signature: 8D6A04C22DF6037279CBAB4B955E50DAAB67AEF2
FILE: 04 - New Day [feat. John Schmersal].flac
  Size: 41037751 Hash: 68833375FDE1DE0B4D27F38F26D45F28 Accuracy: -m0
  Conclusion: CDDA 100%
  Signature: D17E2570E8067C3E73168FA9572EB6C13058EFE1
FILE: 03 - Odyssey.flac
  Size: 44776223 Hash: 52131E5A75B8183F22495D009959650C Accuracy: -m0
  Conclusion: CDDA 100%
  Signature: 5DCD8207528A6A9EC52098945FA1DBBA7CDCE5EE
FILE: 02 - Landscape.flac
  Size: 48960168 Hash: C47AE46F2C51C64B65A93A7A9F836B7F Accuracy: -m0
  Conclusion: CDDA 99%
  Signature: 9319AB2C87EF89625970911507ABC93D45B0EC09
FILE: 01 - Last Night (in This Dream I Watched a Film of a Dream Within This Dream).flac
  Size: 19181892 Hash: 04140374911C6535A047C808AFF5D582 Accuracy: -m0
  Conclusion: CDDA 100%
  Signature: D582B7D4C76DB42A465C925A9C3E4EE161AE16A2

CUE:

REM DATE 2015
REM DISCID A5123D0C
REM COMMENT "ExactAudioCopy v1.0b3"
PERFORMER "Satoshi Tomiie"
TITLE "New Day"
FILE "01 - Last Night (in This Dream I Watched a Film of a Dream Within This Dream).wav" WAVE
  TRACK 01 AUDIO
    TITLE "Last Night (in This Dream I Watched a Film of a Dream Within This Dream)"
    PERFORMER "Satoshi Tomiie"
    ISRC DETB31522001
    FLAGS DCP
    INDEX 01 00:00:00
FILE "02 - Landscape.wav" WAVE
  TRACK 02 AUDIO
    TITLE "Landscape"
    PERFORMER "Satoshi Tomiie"
    ISRC DETB31522002
    FLAGS DCP
    INDEX 01 00:00:00
FILE "03 - Odyssey.wav" WAVE
  TRACK 03 AUDIO
    TITLE "Odyssey"
    PERFORMER "Satoshi Tomiie"
    ISRC DETB31522003
    FLAGS DCP
    INDEX 01 00:00:00
FILE "04 - New Day [feat. John Schmersal].wav" WAVE
  TRACK 04 AUDIO
    TITLE "New Day [feat. John Schmersal]"
    PERFORMER "Satoshi Tomiie"
    ISRC DETB31522004
    FLAGS DCP
    INDEX 01 00:00:00
FILE "05 - Nature Abstraite.wav" WAVE
  TRACK 05 AUDIO
    TITLE "Nature Abstraite"
    PERFORMER "Satoshi Tomiie"
    ISRC DETB31522005
    FLAGS DCP
    INDEX 01 00:00:00
FILE "06 - Thursday, 2AM.wav" WAVE
  TRACK 06 AUDIO
    TITLE "Thursday, 2AM"
    PERFORMER "Satoshi Tomiie"
    ISRC DETB31522006
    FLAGS DCP
    INDEX 01 00:00:00
FILE "07 - Calm Me Up.wav" WAVE
  TRACK 07 AUDIO
    TITLE "Calm Me Up"
    PERFORMER "Satoshi Tomiie"
    ISRC DETB31522007
    FLAGS DCP
    INDEX 01 00:00:00
FILE "08 - Momento Magico.wav" WAVE
  TRACK 08 AUDIO
    TITLE "Momento Magico"
    PERFORMER "Satoshi Tomiie"
    ISRC DETB31522008
    FLAGS DCP
    INDEX 01 00:00:00
FILE "09 - Wave Side Back.wav" WAVE
  TRACK 09 AUDIO
    TITLE "Wave Side Back"
    PERFORMER "Satoshi Tomiie"
    ISRC DETB31522009
    FLAGS DCP
    INDEX 01 00:00:00
FILE "10 - 0814.wav" WAVE
  TRACK 10 AUDIO
    TITLE "0814"
    PERFORMER "Satoshi Tomiie"
    ISRC DETB31522010
    FLAGS DCP
    INDEX 01 00:00:00
FILE "11 - Sinfonia.wav" WAVE
  TRACK 11 AUDIO
    TITLE "Sinfonia"
    PERFORMER "Satoshi Tomiie"
    ISRC DETB31522011
    FLAGS DCP
    INDEX 01 00:00:00
FILE "12 - Cucina Rossa.wav" WAVE
  TRACK 12 AUDIO
    TITLE "Cucina Rossa"
    PERFORMER "Satoshi Tomiie"
    ISRC DETB31522012
    FLAGS DCP
    INDEX 01 00:00:00

Спектрограмма:

Не жилим спасибо. Не забываем голосовать за трекер!!!


Показать сообщения:    

Текущее время: 24-Май 10:51

Часовой пояс: UTC + 3


Вы не можете начинать темы
Вы не можете отвечать на сообщения
Вы не можете редактировать свои сообщения
Вы не можете удалять свои сообщения
Вы не можете голосовать в опросах
Вы не можете прикреплять файлы к сообщениям
Вы не можете скачивать файлы

!ВНИМАНИЕ!
Сайт не предоставляет электронные версии произведений, а занимается лишь коллекционированием и каталогизацией ссылок, присылаемых и публикуемых на форуме нашими читателями. Если вы являетесь правообладателем какого-либо представленного материала и не желаете, чтобы ссылка на него находилась в нашем каталоге, свяжитесь с нами, и мы незамедлительно удалим ее. Файлы для обмена на трекере предоставлены пользователями сайта, и администрация не несет ответственности за их содержание. Просьба не заливать файлы, защищенные авторскими правами, а также файлы нелегального содержания!