۩ ‼ Вы находитесь на Бесплатном торрент-трекере TORRNADA.com ۩ Зарегистрируйтесь для получения полного доступа ко всем функциям сайта ! ۩ После регистрации подпишитесь на нашу рассылку в своём профиле ۩
Auto Web Pinger

 

[Цитировать]

Цимбелин / Cymbeline (2014) BDRip [H.264]«Короли, королевы, байкеры, война»- Производство: США / Benaroya Pictures, Keep Your Head Productions
Жанр: драма
Режиссер: Майкл Алмерейда
Продюсер: Майкл Бенаройя, Энтони Катагас, Эшли Берден
Актеры: Итан Хоук, Эд Харрис, Милла Йовович, Дакота Джонсон, Антон Ельчин, Пенн Бэджли, Джон Легуизамо, Питер Герети, Кевин Корригэн, Вонди Куртис-Холл
Описание:
Современный пересказ одноименной трагедии Уильяма Шекспира. Действие перенесено в наши дни. Цимбелин, лидер байкеров-наркоторговцев, объявляет войну местным продажным полицейским. Его дочери, Имогене и ее возлюбленному Постуму приходится самим сражаться за свою любовь.

Рейтинг MPAA: R - Детям до 17 лет обязательно присутствие родителей
Дата мировой премьеры: 3 сентября 2014
Дата российской премьеры: 5 марта 2015, «Наше Кино»
Продолжительность: 01:38:30
Качество: BDRip [H.264]
Перевод: Дублированное (Лицензия)
Вид субтитров: вшитые, отключаемые
Язык субтитров: Английский (Full + SDH + SDH-Colored)
Видео: H.264, 1060x572 (1,85:1), 23.976 fps, 2273 Кbps, 0.156 bit/pixel
Аудио#1: 48 kHz, AC3 Dolby Digital, 3/2 (L,C,R,l,r) + LFE ch, 448.00 kbps | RUS
Аудио#2: 48 kHz, AC3 Dolby Digital, 3/2 (L,C,R,l,r) + LFE ch, 448.00 kbps | ENG

MediaInfo

General
Unique ID                                : 243816320245390051763952629791415865508 (0xB76D50B18AFEE7E79C0110CC0EB810A4)
Complete name                            : Cymbelin.2014.DUAL.BDRip.x264.mkv
Format                                   : Matroska
Format version                           : Version 4 / Version 2
File size                                : 2.18 GiB
Duration                                 : 1h 38mn
Overall bit rate                         : 3 171 Kbps
Encoded date                             : UTC 2015-07-03 13:29:41
Writing application                      : mkvmerge v5.9.0 ('On The Loose') built on Dec 15 2012 16:39:58
Writing library                          : libebml v1.3.0 + libmatroska v1.4.0
Video
ID                                       : 1
Format                                   : AVC
Format/Info                              : Advanced Video Codec
Format profile                           : High@L4.1
Format settings, CABAC                   : Yes
Format settings, ReFrames                : 10 frames
Codec ID                                 : V_MPEG4/ISO/AVC
Duration                                 : 1h 38mn
Bit rate                                 : 2 273 Kbps
Width                                    : 1 060 pixels
Height                                   : 572 pixels
Display aspect ratio                     : 1.85:1
Frame rate mode                          : Constant
Frame rate                               : 23.976 fps
Color space                              : YUV
Chroma subsampling                       : 4:2:0
Bit depth                                : 8 bits
Scan type                                : Progressive
Bits/(Pixel*Frame)                       : 0.156
Stream size                              : 1.52 GiB (70%)
Writing library                          : x264 core 146 r2538 121396c
Encoding settings                        : cabac=1 / ref=10 / deblock=1:-3:-3 / analyse=0x3:0x113 / me=umh / subme=11 / psy=1 / psy_rd=1.00:0.04 / mixed_ref=1 / me_range=48 / chroma_me=1 / trellis=2 / 8x8dct=1 / cqm=0 / deadzone=21,11 / fast_pskip=0 / chroma_qp_offset=-3 / threads=9 / lookahead_threads=2 / sliced_threads=0 / nr=0 / decimate=1 / interlaced=0 / bluray_compat=0 / constrained_intra=0 / bframes=11 / b_pyramid=2 / b_adapt=2 / b_bias=0 / direct=3 / weightb=1 / open_gop=0 / weightp=2 / keyint=250 / keyint_min=23 / scenecut=40 / intra_refresh=0 / rc_lookahead=60 / rc=2pass / mbtree=0 / bitrate=2273 / ratetol=1.0 / qcomp=0.70 / qpmin=0 / qpmax=69 / qpstep=4 / cplxblur=20.0 / qblur=0.5 / vbv_maxrate=14000 / vbv_bufsize=14000 / nal_hrd=none / filler=0 / ip_ratio=1.35 / pb_ratio=1.30 / aq=1:0.80
Language                                 : English
Default                                  : Yes
Forced                                   : No
Audio #1
ID                                       : 2
Format                                   : AC-3
Format/Info                              : Audio Coding 3
Mode extension                           : CM (complete main)
Format settings, Endianness              : Big
Codec ID                                 : A_AC3
Duration                                 : 1h 38mn
Bit rate mode                            : Constant
Bit rate                                 : 448 Kbps
Channel count                            : 6 channels
Channel positions                        : Front: L C R, Side: L R, LFE
Sampling rate                            : 48.0 KHz
Bit depth                                : 16 bits
Compression mode                         : Lossy
Stream size                              : 316 MiB (14%)
Title                                    : Dub | DD 5.1 @ 448 kbps - R5
Language                                 : Russian
Default                                  : Yes
Forced                                   : No
Audio #2
ID                                       : 3
Format                                   : AC-3
Format/Info                              : Audio Coding 3
Mode extension                           : CM (complete main)
Format settings, Endianness              : Big
Codec ID                                 : A_AC3
Duration                                 : 1h 38mn
Bit rate mode                            : Constant
Bit rate                                 : 448 Kbps
Channel count                            : 6 channels
Channel positions                        : Front: L C R, Side: L R, LFE
Sampling rate                            : 48.0 KHz
Bit depth                                : 16 bits
Compression mode                         : Lossy
Stream size                              : 316 MiB (14%)
Title                                    : Original | DD 5.1 @ 448 kbps
Language                                 : English
Default                                  : No
Forced                                   : No
Text #1
ID                                       : 4
Format                                   : UTF-8
Codec ID                                 : S_TEXT/UTF8
Codec ID/Info                            : UTF-8 Plain Text
Title                                    : Full
Language                                 : English
Default                                  : No
Forced                                   : No
Text #2
ID                                       : 5
Format                                   : UTF-8
Codec ID                                 : S_TEXT/UTF8
Codec ID/Info                            : UTF-8 Plain Text
Title                                    : SDH
Language                                 : English
Default                                  : No
Forced                                   : No
Text #3
ID                                       : 6
Format                                   : UTF-8
Codec ID                                 : S_TEXT/UTF8
Codec ID/Info                            : UTF-8 Plain Text
Title                                    : SDH-Colored
Language                                 : English
Default                                  : No
Forced                                   : No
Menu
00:00:00.000                             : en:(01)00:00:00:000
00:06:57.792                             : en:(02)00:06:57:792
00:10:59.450                             : en:(03)00:10:59:450
00:17:17.828                             : en:(04)00:17:17:828
00:27:57.384                             : en:(05)00:27:57:384
00:30:47.971                             : en:(06)00:30:47:971
00:35:09.649                             : en:(07)00:35:09:649
00:41:30.654                             : en:(08)00:41:30:654
00:49:24.085                             : en:(09)00:49:24:085
00:54:31.142                             : en:(10)00:54:31:142
01:02:51.434                             : en:(11)01:02:51:434
01:07:28.002                             : en:(12)01:07:28:002
01:14:28.796                             : en:(13)01:14:28:796
01:21:20.000                             : en:(14)01:21:20:000
01:25:39.008                             : en:(15)01:25:39:008
01:32:20.785                             : en:(16)01:32:20:785
01:38:31.488                             : en:(17)01:38:31:488

Награды и премии

Венецианский кинофестиваль, 2014 год
Номинации (1):
Venice Horizons Award~Best Film
Скриншоты:
Не жилим спасибо. Не забываем голосовать за трекер!!!


Показать сообщения:    

Текущее время: 22-Май 14:04

Часовой пояс: UTC + 3


Вы не можете начинать темы
Вы не можете отвечать на сообщения
Вы не можете редактировать свои сообщения
Вы не можете удалять свои сообщения
Вы не можете голосовать в опросах
Вы не можете прикреплять файлы к сообщениям
Вы не можете скачивать файлы

!ВНИМАНИЕ!
Сайт не предоставляет электронные версии произведений, а занимается лишь коллекционированием и каталогизацией ссылок, присылаемых и публикуемых на форуме нашими читателями. Если вы являетесь правообладателем какого-либо представленного материала и не желаете, чтобы ссылка на него находилась в нашем каталоге, свяжитесь с нами, и мы незамедлительно удалим ее. Файлы для обмена на трекере предоставлены пользователями сайта, и администрация не несет ответственности за их содержание. Просьба не заливать файлы, защищенные авторскими правами, а также файлы нелегального содержания!