۩ ‼ Вы находитесь на Бесплатном торрент-трекере TORRNADA.com ۩ Зарегистрируйтесь для получения полного доступа ко всем функциям сайта ! ۩ После регистрации подпишитесь на нашу рассылку в своём профиле ۩
Auto Web Pinger

 

[Цитировать]

Цимбелин / Cymbeline (2014) HDRip«Короли, королевы, байкеры, война»- Производство: США / Benaroya Pictures, Keep Your Head Productions
Жанр: драма
Режиссер: Майкл Алмерейда
Продюсер: Майкл Бенаройя, Энтони Катагас, Эшли Берден
Актеры: Итан Хоук, Эд Харрис, Милла Йовович, Дакота Джонсон, Антон Ельчин, Пенн Бэджли, Джон Легуизамо, Питер Герети, Кевин Корригэн, Вонди Куртис-Холл
Описание:
Современный пересказ одноименной трагедии Уильяма Шекспира. Действие перенесено в наши дни. Цимбелин, лидер байкеров-наркоторговцев, объявляет войну местным продажным полицейским. Его дочери, Имогене и ее возлюбленному Постуму приходится самим сражаться за свою любовь.

Рейтинг MPAA: R - Детям до 17 лет обязательно присутствие родителей
Дата мировой премьеры: 3 сентября 2014
Дата российской премьеры: 5 марта 2015, «Наше Кино»
Продолжительность: 01:38:30
Качество: HDRip
Перевод: Дублированное (Лицензия)
Субтитры: Отсутствуют
Видео: 656x352, 922 kbps, 23,976 fps, 0,166 Bits/(Pixel*Frame)
Звук: MP3, 48 kHz, 2 ch, 128 kbps

MediaInfo

General
Complete name                            : Cymbeline.2014.D.HDRip.avi
Format                                   : AVI
Format/Info                              : Audio Video Interleave
File size                                : 746 MiB
Duration                                 : 1h 38mn
Overall bit rate                         : 1 059 Kbps
Writing application                      : VirtualDubMod 1.5.10.3 | www.virtualdub-fr.org || (build 2550/release)
Writing library                          : VirtualDubMod build 2550/release
Video
ID                                       : 0
Format                                   : MPEG-4 Visual
Format profile                           : Advanced Simple@L5
Format settings, BVOP                    : 1
Format settings, QPel                    : No
Format settings, GMC                     : No warppoints
Format settings, Matrix                  : Custom
Codec ID                                 : XVID
Codec ID/Hint                            : XviD
Duration                                 : 1h 38mn
Bit rate                                 : 922 Kbps
Width                                    : 656 pixels
Height                                   : 352 pixels
Display aspect ratio                     : 1.85:1
Frame rate                               : 23.976 fps
Color space                              : YUV
Chroma subsampling                       : 4:2:0
Bit depth                                : 8 bits
Scan type                                : Progressive
Compression mode                         : Lossy
Bits/(Pixel*Frame)                       : 0.166
Stream size                              : 649 MiB (87%)
Writing library                          : XviD 73
Audio
ID                                       : 1
Format                                   : MPEG Audio
Format version                           : Version 1
Format profile                           : Layer 3
Codec ID                                 : 55
Codec ID/Hint                            : MP3
Duration                                 : 1h 38mn
Bit rate mode                            : Constant
Bit rate                                 : 128 Kbps
Channel count                            : 2 channels
Sampling rate                            : 48.0 KHz
Compression mode                         : Lossy
Stream size                              : 90.2 MiB (12%)
Alignment                                : Aligned on interleaves
Interleave, duration                     : 42 ms (1.00 video frame)
Interleave, preload duration             : 504 ms
Writing library                          : LAME3.99r
Encoding settings                        : -m s -V 4 -q 2 -lowpass 17 -b 128

Награды и премии

Венецианский кинофестиваль, 2014 год
Номинации (1):
Venice Horizons Award~Best Film
Скриншоты:
Не жилим спасибо. Не забываем голосовать за трекер!!!


Показать сообщения:    

Текущее время: 21-Май 07:44

Часовой пояс: UTC + 3


Вы не можете начинать темы
Вы не можете отвечать на сообщения
Вы не можете редактировать свои сообщения
Вы не можете удалять свои сообщения
Вы не можете голосовать в опросах
Вы не можете прикреплять файлы к сообщениям
Вы не можете скачивать файлы

!ВНИМАНИЕ!
Сайт не предоставляет электронные версии произведений, а занимается лишь коллекционированием и каталогизацией ссылок, присылаемых и публикуемых на форуме нашими читателями. Если вы являетесь правообладателем какого-либо представленного материала и не желаете, чтобы ссылка на него находилась в нашем каталоге, свяжитесь с нами, и мы незамедлительно удалим ее. Файлы для обмена на трекере предоставлены пользователями сайта, и администрация не несет ответственности за их содержание. Просьба не заливать файлы, защищенные авторскими правами, а также файлы нелегального содержания!