۩ ‼ Вы находитесь на Бесплатном торрент-трекере TORRNADA.com ۩ Зарегистрируйтесь для получения полного доступа ко всем функциям сайта ! ۩ После регистрации подпишитесь на нашу рассылку в своём профиле ۩
Auto Web Pinger

 

[Цитировать]

Роман Стеблянский | Уроки Adobe InDesign CS5. Верстка печатных и электронных изданий. (2011) PCRec [H.264]- Автор (режиссер): Роман Александрович Стеблянский
Производство: Специалист
Жанр: Обучающее, графика, видеокурсы
Описание:
Курс включает в себя 12 уроков и рассматриваются как теоретические, так и практические вопросы макетирования и верстки с использованием программы Adobe InDesign CS5. Слушатели выполняют различные задания – от воспроизведения готовых макетов до самостоятельной разработки новых макетов публикаций. Рассматриваются особенности взаимодействия Adobe InDesign с графическими и текстовыми редакторами, вопросы допечатной подготовки и печати, в том числе с использованием технологии Adobe Acrobat.
Данный курс будет интересен главным редакторам, дизайнерам, верстальщикам, верстальщикам-дизайнерам электронных документов.
Продолжительность: 33:47:12
Качество видео: PCRec
Видео: AVC/H.264, 960х720, ~426 kbps
Аудио: AAC, 2 ch, 192 kbps, VBR

Mediainfo:

Общее
Полное имя                               : G:\art\InDesign\Уроки Adobe InDesign CS5, часть 01.mp4
Формат                                   : MPEG-4
Профиль формата                          : Base Media / Version 2
Идентификатор кодека                     : mp42
Размер файла                             : 819 Мбайт
Продолжительность                        : 3 ч. 4 м.
Режим общего битрейта                    : Переменный
Общий поток                              : 620 Кбит/сек
Дата кодирования                         : UTC 2014-09-06 02:57:36
Дата пометки                             : UTC 2014-09-06 02:57:36
gsst                                     : 0
gstd                                     : 11073433
gssd                                     : B0511C007HM1435128954934094
gshh                                     : r4---sn-1uxaxjvh-axqe.googlevideo.com
Видео
Идентификатор                            : 1
Формат                                   : AVC
Формат/Информация                        : Advanced Video Codec
Профиль формата                          : High@L3.1
Параметр CABAC формата                   : Да
Параметр ReFrames формата                : 1 кадр
Параметр GOP формата                     : M=1, N=60
Идентификатор кодека                     : avc1
Идентификатор кодека/Информация          : Advanced Video Coding
Продолжительность                        : 3 ч. 4 м.
Битрейт                                  : 426 Кбит/сек
Максимальный битрейт                     : 4946 Кбит/сек
Ширина                                   : 960 пикселей
Высота                                   : 720 пикселей
Соотношение сторон                       : 4:3
Режим частоты кадров                     : Постоянный
Частота кадров                           : 25,000 кадров/сек
Цветовое пространство                    : YUV
Субдискретизация насыщенности            : 4:2:0
Битовая глубина                          : 8 бит
Тип развёртки                            : Прогрессивная
Бит/(Пиксели*Кадры)                      : 0.025
Размер потока                            : 562 Мбайт (69%)
Дата пометки                             : UTC 2014-09-06 02:59:29
Аудио
Идентификатор                            : 2
Формат                                   : AAC
Формат/Информация                        : Advanced Audio Codec
Профиль формата                          : LC
Идентификатор кодека                     : 40
Продолжительность                        : 3 ч. 4 м.
Вид битрейта                             : Переменный
Битрейт                                  : 192 Кбит/сек
Максимальный битрейт                     : 201 Кбит/сек
Каналы                                   : 2 канала
Расположение каналов                     : Front: L R
Частота                                  : 44,1 КГц
Метод сжатия                             : С потерями
Размер потока                            : 253 Мбайт (31%)
Заголовок                                : IsoMedia File Produced by Google, 5-11-2011
Дата кодирования                         : UTC 2014-09-06 02:58:35
Дата пометки                             : UTC 2014-09-06 02:59:29

Дополнительная информация:

Программа Adobe InDesign CS5 представляет собой новейшую версию одной из самых функциональных на настоящий момент издательских систем. Великолепные возможности верстки сочетаются с очень удобным и гибким интерфейсом. Исключительные возможности при работе с цветом и графикой дополняют превосходные возможности для работы с текстом, а набор визуальных эффектов вообще не имеет аналогов среди других программ верстки. Программа Adobe InDesign CS5 без проблем импортирует текстовые файлы, содержащие иллюстрации и таблицы без потери форматирования, а также графические файлы в форматах Adobe PhotoShop и Adobe Illustrator. Программа позволяет выполнить достаточно тщательный допечатный контроль и обнаружить проблемы на самой ранней стадии, без дополнительных временных и материальных затрат. Курс входит в программу подготовки специалистов в области полиграфии и допечатной подготовки. Курс предназначен для главных редакторов, дизайнеров, верстальщиков электронных документов.
Скриншоты:
Не жилим спасибо. Не забываем голосовать за трекер!!!


Показать сообщения:    

Текущее время: 24-Май 10:50

Часовой пояс: UTC + 3


Вы не можете начинать темы
Вы не можете отвечать на сообщения
Вы не можете редактировать свои сообщения
Вы не можете удалять свои сообщения
Вы не можете голосовать в опросах
Вы не можете прикреплять файлы к сообщениям
Вы не можете скачивать файлы

!ВНИМАНИЕ!
Сайт не предоставляет электронные версии произведений, а занимается лишь коллекционированием и каталогизацией ссылок, присылаемых и публикуемых на форуме нашими читателями. Если вы являетесь правообладателем какого-либо представленного материала и не желаете, чтобы ссылка на него находилась в нашем каталоге, свяжитесь с нами, и мы незамедлительно удалим ее. Файлы для обмена на трекере предоставлены пользователями сайта, и администрация не несет ответственности за их содержание. Просьба не заливать файлы, защищенные авторскими правами, а также файлы нелегального содержания!