۩ ‼ Вы находитесь на Бесплатном торрент-трекере TORRNADA.com ۩ Зарегистрируйтесь для получения полного доступа ко всем функциям сайта ! ۩ После регистрации подпишитесь на нашу рассылку в своём профиле ۩
Auto Web Pinger

 

[Цитировать]

Название: Дом
Оригинальное название: Home
Год выпуска: 2015
Жанр: Мультфильм, фантастика, фэнтези, приключения, полнометражный
Выпущено: США, DreamWorks Animation
Режиссер: Тим Джонсон
В ролях: Джим Парсонс, Рианна, Стив Мартин, Дженнифер Лопес, Мэтт Джонс, Брайан Степанек, Эйприл Стрюбинг, Стивен Кеарин, Лиза Стюарт, Эйприл Уинчелл, Дерек Бланкеншип, Найджел В. Тирни

О фильме:
Захватив Землю, раса пришельцев Був тут же начинает заниматься её благоустройством и реорганизацией. «Не стоит благодарности!» — заявляют они землянам, собранным на время в отдельных резервациях. Находчивая и рисковая девочка по имени Дар, чудом сбежавшая от пришельцев, встречает на своем пути самого раздражающе-оптимистичного Бува по имени О, отвергнутого своими инопланетными собратьями. Этой, казалось бы, несовместимой парочке предстоит спасти нашу планету. Хорошо, что у них есть летающий автомобиль!

Размер:
7.72 ГБ
Продолжительность: 01:33:48
Перевод: Дублированный
Качество: BDRip (1080р)
Формат: MKV
Видео: MPEG4/AVC, 10700 Кbps, 1920х1080, 23.976 fps
Аудио 1:
AC3, 6 каналов, 448 Кбит/сек | Английский
Аудио 2: АС3, 6 каналов, 448 Кбит/сек | Русский

Формат 3D:
Half SideBySide / Горизонтальная анаморфная стереопара

mediainfo

Полное имя : D:\Раздача\HOME.3D.H-SBS.[torrent3d.ru].mkv
Формат : Matroska
Версия формата : Version 4 / Version 2
Размер файла : 7,72 Гбайт
Продолжительность : 1 ч. 33 м.
Общий поток : 11,8 Мбит/сек
Название фильма : HOME.Title600.BlurayRip.3D.H-SBS.by.SOLdAt[torrent3d.ru]
Дата кодирования : UTC 2015-07-05 09:20:53
Программа кодирования : mkvmerge v7.1.0 ('Good Love') 64bit built on Jul 27 2014 13:06:55
Библиотека кодирования : libebml v1.3.0 + libmatroska v1.4.1
Видео
Идентификатор : 1
Формат : AVC
Формат/Информация : Advanced Video Codec
Профиль формата : High@L4.1
Параметр CABAC формата : Да
Параметр ReFrames формата : 2 кадра
Идентификатор кодека : V_MPEG4/ISO/AVC
Продолжительность : 1 ч. 33 м.
Битрейт : 10,7 Мбит/сек
Ширина : 1920 пикселей
Высота : 1080 пикселей
Соотношение сторон : 16:9
Режим частоты кадров : Постоянный
Частота кадров : 23,976 кадра/сек
Цветовое пространство : YUV
Субдискретизация насыщенности : 4:2:0
Битовая глубина : 8 бит
Тип развёртки : Прогрессивная
Бит/(Пиксели*Кадры) : 0.214
Размер потока : 6,98 Гбайт (90%)
Заголовок : BDRip_by_SOLdAt
Библиотека кодирования : x264 core
Язык : Russian
Default : Да
Forced : Нет
Основные цвета : BT.709
Характеристики трансфера : BT.709
Коэффициенты матрицы : BT.709
Аудио #1
Идентификатор : 2
Формат : AC-3
Формат/Информация : Audio Coding 3
Расширение режима : CM (complete main)
Параметр Endianness формата : Big
Идентификатор кодека : A_AC3
Продолжительность : 1 ч. 33 м.
Вид битрейта : Постоянный
Битрейт : 448 Кбит/сек
Каналы : 6 каналов
Расположение каналов : Front: L C R, Side: L R, LFE
Частота : 48,0 КГц
Битовая глубина : 16 бит
Размер потока : 301 Мбайт (4%)
Заголовок : 6 ch, 448 kb/s
Язык : English
Default : Нет
Forced : Нет
Аудио #2
Идентификатор : 3
Формат : AC-3
Формат/Информация : Audio Coding 3
Расширение режима : CM (complete main)
Параметр Endianness формата : Big
Идентификатор кодека : A_AC3
Продолжительность : 1 ч. 33 м.
Вид битрейта : Постоянный
Битрейт : 448 Кбит/сек
Каналы : 6 каналов
Расположение каналов : Front: L C R, Side: L R, LFE
Частота : 48,0 КГц
Битовая глубина : 16 бит
Размер потока : 301 Мбайт (4%)
Заголовок : 6 ch, 448 kb/s
Язык : Russian
Default : Да
Forced : Нет
Скриншоты:
Не жилим спасибо. Не забываем голосовать за трекер!!!


Показать сообщения:    

Текущее время: 22-Май 11:45

Часовой пояс: UTC + 3


Вы не можете начинать темы
Вы не можете отвечать на сообщения
Вы не можете редактировать свои сообщения
Вы не можете удалять свои сообщения
Вы не можете голосовать в опросах
Вы не можете прикреплять файлы к сообщениям
Вы не можете скачивать файлы

!ВНИМАНИЕ!
Сайт не предоставляет электронные версии произведений, а занимается лишь коллекционированием и каталогизацией ссылок, присылаемых и публикуемых на форуме нашими читателями. Если вы являетесь правообладателем какого-либо представленного материала и не желаете, чтобы ссылка на него находилась в нашем каталоге, свяжитесь с нами, и мы незамедлительно удалим ее. Файлы для обмена на трекере предоставлены пользователями сайта, и администрация не несет ответственности за их содержание. Просьба не заливать файлы, защищенные авторскими правами, а также файлы нелегального содержания!