۩ ‼ Вы находитесь на Бесплатном торрент-трекере TORRNADA.com ۩ Зарегистрируйтесь для получения полного доступа ко всем функциям сайта ! ۩ После регистрации подпишитесь на нашу рассылку в своём профиле ۩
Auto Web Pinger

 

[Цитировать]

Первая передача на НТВ. Автомобильная передача. Выпуск №215 (05.07.2015) SATRip Телекомпания: НТВ
Жанр: Автопередача
Ведущий: Виктор Травин
Режиссер: Роман Иовица
Описание:
« Первая передача» — новый проект для автомобилистов и про автомобилистов. Ведущий «Первой передачи» — Виктор Травин, президент Коллегии правовой защиты автовладельцев. Уже много лет этот известный журналист защищает права автолюбителей. В автомире для него нет секретов и закрытых дверей. Всех, кто не представляет своей жизни без автомобиля, и тех, кто только задумывается о приобретении собственного авто, ждут ответы на самые актуальные вопросы.
К сожалению, мало кто из автовладельцев может похвастаться тем, что ни разу не попадал в неприятные ситуации. И речь не только о ДТП: некачественное обслуживание и сервис, подставы на дорогах и прочие неприятности — у большинства найдется несколько подобных историй в запасе. Всегда ли мы знаем, как вести себя в таких случаях? «Первая передача» не только расскажет о типичных проблемах автовладельцев, но и поможет их решить. С кого требовать возмещение ущерба, если вы попали в яму на дороге? Что делать, если вас обманули в автосалоне? Как заставить заплатить за ремонт, если вашу машину заправили некачественным бензином? Виктор Травин готов на деле доказать, что законы — это не дорога с односторонним движением, и любой владелец автомобиля, вооруженный знаниями, способен отстоять свои права. Благодаря «Первой передаче» правила станут понятнее, а дорога — безопаснее.
Отдельный блок программы будет посвящен самой, возможно, больной для российских автовладельцев теме — нашим дорогам. Если качество дороги оставляет желать лучшего, а проехать по ней можно только на вездеходе, зрители НТВ могут быть уверены — это не останется без внимания корреспондентов программы. Они не только найдут и покажут бездорожье, но и постараются ответить на вопрос, кто в ответе за плачевное состояние проезжей части в каждом конкретном случае.
Дорога полна неожиданностей: все самое необычное, попавшее в объективы любительских камер — трагичные, а порой нелепые и комичные дорожные происшествия. Ну и конечно — «Первая передача» не обойдется без новостей из автомобильного мира. Репортажи с главных международных автомобильных салонов, еженедельный обзор автособытий и автотрендов — в каждом выпуске программы.
Хотите из простого автолюбителя стать автопрофессионалом? Смотрите «Первую передачу» с Виктором Травиным каждое воскресенье на НТВ!
Продолжительность: ~ 00:32:21
Качество видео: SATRip
Видео: MPEG4, XviD, 720x448 (1.607), 25.000 fps, 1 800 Kbps (0.223 bit/pixel)
Аудио: MP3, 48.0 KHz, 2 ch, 128 Kbps, CBR

Mediainfo:

Формат                                   : AVI
Формат/Информация                        : Audio Video Interleave
Размер файла                             : 449 Мбайт
Продолжительность                        : 32 м.
Общий поток                              : 1937 Кбит/сек
Программа кодирования                    : VirtualDubMod 1.5.10.3 | www.virtualdub-fr.org || (build 2550/release)
Библиотека кодирования                   : VirtualDubMod build 2550/release
Видео
Идентификатор                            : 0
Формат                                   : MPEG-4 Visual
Профиль формата                          : Advanced Simple@L5
Параметр BVOP формата                    : 2
Параметр QPel формата                    : Нет
Параметр GMC формата                     : Без точки перехода
Параметр матрицы формата                 : Default (H.263)
Идентификатор кодека                     : XVID
Идентификатор кодека/Подсказка           : XviD
Продолжительность                        : 32 м.
Битрейт                                  : 1800 Кбит/сек
Ширина                                   : 720 пикселей
Высота                                   : 448 пикселей
Соотношение сторон                       : 16:10
Частота кадров                           : 25,000 кадров/сек
Цветовое пространство                    : YUV
Субдискретизация насыщенности            : 4:2:0
Битовая глубина                          : 8 бит
Тип развёртки                            : Прогрессивная
Метод сжатия                             : С потерями
Бит/(Пиксели*Кадры)                      : 0.223
Размер потока                            : 417 Мбайт (93%)
Библиотека кодирования                   : XviD 1.2.1 (UTC 2008-12-04)
Аудио
Идентификатор                            : 1
Формат                                   : MPEG Audio
Версия формата                           : Version 1
Профиль формата                          : Layer 3
Идентификатор кодека                     : 55
Идентификатор кодека/Подсказка           : MP3
Продолжительность                        : 32 м.
Вид битрейта                             : Постоянный
Битрейт                                  : 128 Кбит/сек
Каналы                                   : 2 канала
Частота                                  : 48,0 КГц
Метод сжатия                             : С потерями
Размер потока                            : 29,6 Мбайт (7%)
Выравнивание                             : Соединение по промежуткам
Продолжительность промежутка             : 40  мс. (1,00 видеокадр)
Время предзагрузки промежутка            : 504  мс.
Библиотека кодирования                   : LAME3.99r
Настройки программы                      : -m s -V 4 -q 2 -lowpass 17 -b 128

В выпуске

Аномальный перекресток: водители теряют управление! Экстрасенс кое-что спросил у дерева и с ножом в руках вошел в контакт с потусторонними силами…
Ездоки: куда один такой повез приятелей и почему теперь дружбе конец? А другой протаранил маршрутку и начал следствие «за нос» водить.
Дети на каникулах и на велосипедах. Грозит ли родителям штраф, если ребенок ездит без защитной экипировки? Где кататься можно, а где – нельзя? Какими светофорами должен руководствоваться велосипедист – пешеходными или водительскими?
Берегись автосалона: как менеджеры пудрят мозги покупателям, что нужно сделать перед оплатой и почему автомобиль могут снять с гарантии? Об этом — в рубрике «Автоликбез».
В рубрике «Право руля» Виктор Травин разъяснит:
– можно ли полис ОСАГО по электронной почте получить?
– как восстановить регистрацию утилизированной машины?
– можно ли безнаказанно ездить без номеров?
– вправе ли инспектор ДПС без понятых или видеокамеры сверять маркировку на автомобиле с данными документов на машину?
– что делать, если банк обязал застраховать машину в конкретной страховой компании, но там отказываются заключать с вами договор?
– нужна ли новая медицинская справка, если через месяц после получения прав вы решили открыть еще одну категорию?
Скриншоты: Не жилим спасибо. Не забываем голосовать за трекер!!!


Показать сообщения:    

Текущее время: 20-Май 15:56

Часовой пояс: UTC + 3


Вы не можете начинать темы
Вы не можете отвечать на сообщения
Вы не можете редактировать свои сообщения
Вы не можете удалять свои сообщения
Вы не можете голосовать в опросах
Вы не можете прикреплять файлы к сообщениям
Вы не можете скачивать файлы

!ВНИМАНИЕ!
Сайт не предоставляет электронные версии произведений, а занимается лишь коллекционированием и каталогизацией ссылок, присылаемых и публикуемых на форуме нашими читателями. Если вы являетесь правообладателем какого-либо представленного материала и не желаете, чтобы ссылка на него находилась в нашем каталоге, свяжитесь с нами, и мы незамедлительно удалим ее. Файлы для обмена на трекере предоставлены пользователями сайта, и администрация не несет ответственности за их содержание. Просьба не заливать файлы, защищенные авторскими правами, а также файлы нелегального содержания!