۩ ‼ Вы находитесь на Бесплатном торрент-трекере TORRNADA.com ۩ Зарегистрируйтесь для получения полного доступа ко всем функциям сайта ! ۩ После регистрации подпишитесь на нашу рассылку в своём профиле ۩
Auto Web Pinger

 

[Цитировать]

Metallica - Francais Pour Une Nuit (2009) BDRip [H.264/1080р] - Выпущено: Франция, США , Universal Music
Жанр: Hard Rock, Metal, Thrash
Год выпуска: 2009
Исполнитель: James Hetfield (Lead vocals, Guitar), Lars Ulrich (Drums), Kirk Hammett (Lead Guitar), Robert Trujillo (Bass Guitar)
Описание:
7 июля 2009 года Metallica выступила на одной из самых запоминающихся концертных площадок в мире - в старом амфитеатре "Arenes de Nimes"древнем амфитеатре во французском городе Ним, который построили еще римляне и который считается одной из самых любопытных концертных площадок в мире. В результате получился "Francais Pour Une Nuit" (название переводится как "по-французски на один вечер"). "Francais Pour Une Nuit" стал особенным релизом, потому что он не только был снят во Франции, но и все его аспекты являются французскими, ведь концерт был снят, записан и смонтирован французскими операторами и монтажерами, обложку и оформление бокса делала французская дизайнерская команда, даже все выходные данные диска написаны по-французски.
Продолжительность: 02:12:00
Качество видео: BDRip (1080р)
Контейнер: MKV
Битрейт видео: ~22,5 Mbps, (16:9), 1920x1080р, 29,970 fps, High Profile 4.1
Видеокодек: MPEG-4 AVC
Аудиокодек:DTS, AC3,
Аудио #1: DTS 5.1, 1509 kbps, 48 kHz, 16 bit
Аудио #2: AC3 2.0, 640 kbps, 48 kHz
Семпл
Релиз от
..

Треклист:

Треклист:
01. Blackened
02. Creeping Death
03. Fuel
04. Harvester Of Sorrow
05. Fade To Black
06. Broken, Beat & Scarred
07. Cyanide
08. Sad But True
09. One
10. All Nightmare Long
11. The Day That Never Comes
12. Master Of Puppets
13. Dyers Eve
14. Nothing Else Matters
15. Enter Sandman
16. Stone Cold Crazy
17. Motorbreath
18. Seek And Destroy

h.264 log

---[Information] [23.01.2014 18:30:26] x264 [info]: profile High, level 4.1
---[Information] [24.01.2014 7:31:11] x264 [info]: frame I:1542 Avg QP:15.72 size:279554
---[Information] [24.01.2014 7:31:11] x264 [info]: frame P:61462 Avg QP:18.28 size:147464
---[Information] [24.01.2014 7:31:11] x264 [info]: frame B:174387 Avg QP:20.18 size: 73306
---[Information] [24.01.2014 7:31:11] x264 [info]: consecutive B-frames: 3.8% 5.1% 17.6% 19.6% 17.1% 33.1% 2.5% 0.7% 0.5%
---[Information] [24.01.2014 7:31:11] x264 [info]: mb I I16..4: 8.0% 71.3% 20.7%
---[Information] [24.01.2014 7:31:11] x264 [info]: mb P I16..4: 4.8% 38.2% 4.9% P16..4: 29.5% 14.0% 6.3% 0.5% 0.1% skip: 1.5%
---[Information] [24.01.2014 7:31:11] x264 [info]: mb B I16..4: 1.1% 6.2% 0.8% B16..8: 43.1% 14.0% 3.1% direct:18.0% skip:13.7% L0:38.8% L1:41.0% BI:20.2%
---[Information] [24.01.2014 7:31:11] x264 [info]: 8x8 transform intra:78.5% inter:66.7%
---[Information] [24.01.2014 7:31:11] x264 [info]: direct mvs spatial:96.9% temporal:3.1%
---[Information] [24.01.2014 7:31:11] x264 [info]: coded y,uvDC,uvAC intra: 82.8% 88.6% 57.3% inter: 47.5% 65.5% 11.0%
---[Information] [24.01.2014 7:31:11] x264 [info]: i16 v,h,dc,p: 41% 17% 15% 27%
---[Information] [24.01.2014 7:31:11] x264 [info]: i8 v,h,dc,ddl,ddr,vr,hd,vl,hu: 13% 9% 10% 9% 11% 12% 11% 12% 12%
---[Information] [24.01.2014 7:31:11] x264 [info]: i4 v,h,dc,ddl,ddr,vr,hd,vl,hu: 13% 9% 5% 9% 13% 13% 13% 11% 13%
---[Information] [24.01.2014 7:31:11] x264 [info]: i8c dc,h,v,p: 38% 24% 22% 17%
---[Information] [24.01.2014 7:31:11] x264 [info]: Weighted P-Frames: Y:5.7% UV:3.7%
---[Information] [24.01.2014 7:31:11] x264 [info]: ref P L0: 52.6% 10.8% 21.5% 12.3% 2.7% 0.1%
---[Information] [24.01.2014 7:31:11] x264 [info]: ref B L0: 87.2% 10.1% 2.7%
---[Information] [24.01.2014 7:31:11] x264 [info]: ref B L1: 93.6% 6.4%
---[Information] [24.01.2014 7:31:11] x264 [info]: kb/s:22500.42

MediaInfo

Формат : Matroska
Версия формата : Version 1
Размер файла : 22,7 Гбайт
Продолжительность : 2 ч. 12 м.
Общий поток : 24,6 Мбит/сек
Дата кодирования : UTC 2014-01-24 04:18:04
Программа кодирования : mkvmerge v2.4.2 ('Oh My God') built on Jan 18 2009 17:30:28
Библиотека кодирования : libebml v0.7.7 + libmatroska v0.8.1
Видео
Идентификатор : 1
Формат : AVC
Формат/Информация : Advanced Video Codec
Профиль формата : High@L4.1
Параметр CABAC формата : Да
Параметр ReFrames формата : 4 кадра
Идентификатор кодека : V_MPEG4/ISO/AVC
Продолжительность : 2 ч. 12 м.
Битрейт : 22,5 Мбит/сек
Ширина : 1920 пикселей
Высота : 1080 пикселей
Соотношение сторон : 16:9
Режим частоты кадров : Постоянный
Частота кадров : 29,970 кадров/сек
Цветовое пространство : YUV
Субдискретизация насыщенности : 4:2:0
Битовая глубина : 8 бит
Тип развёртки : Прогрессивная
Бит/(Пиксели*Кадры) : 0.362
Размер потока : 20,3 Гбайт (89%)
Заголовок : garryson
Библиотека кодирования : x264 core 138 r2358 9e941d1
Настройки программы : cabac=1 / ref=4 / deblock=1:-3:-3 / analyse=0x3:0x133 / me=umh / subme=10 / psy=1 / psy_rd=1.00:0.15 / mixed_ref=1 / me_range=30 / chroma_me=1 / trellis=2 / 8x8dct=1 / cqm=0 / deadzone=21,11 / fast_pskip=0 / chroma_qp_offset=-3 / threads=12 / lookahead_threads=2 / sliced_threads=0 / nr=0 / decimate=1 / interlaced=0 / bluray_compat=0 / constrained_intra=0 / bframes=8 / b_pyramid=2 / b_adapt=2 / b_bias=0 / direct=3 / weightb=1 / open_gop=0 / weightp=2 / keyint=300 / keyint_min=29 / scenecut=40 / intra_refresh=0 / rc_lookahead=40 / rc=2pass / mbtree=1 / bitrate=22500 / ratetol=1.0 / qcomp=0.60 / qpmin=0 / qpmax=69 / qpstep=4 / cplxblur=20.0 / qblur=0.5 / ip_ratio=1.40 / aq=1:1.00
Язык : English
Default : Да
Forced : Нет
Аудио #1
Идентификатор : 2
Формат : DTS
Формат/Информация : Digital Theater Systems
Режим : 16
Параметр Endianness формата : Big
Идентификатор кодека : A_DTS
Продолжительность : 2 ч. 12 м.
Вид битрейта : Постоянный
Битрейт : 1509 Кбит/сек
Каналы : 6 каналов
Расположение каналов : Front: L C R, Side: L R, LFE
Частота : 48,0 КГц
Битовая глубина : 16 бит
Метод сжатия : С потерями
Размер потока : 1,39 Гбайт (6%)
Заголовок : DTS garryson
Язык : English
Default : Да
Forced : Нет
Аудио #2
Идентификатор : 3
Формат : AC-3
Формат/Информация : Audio Coding 3
Расширение режима : CM (complete main)
Параметр Endianness формата : Big
Идентификатор кодека : A_AC3
Продолжительность : 2 ч. 12 м.
Вид битрейта : Постоянный
Битрейт : 640 Кбит/сек
Каналы : 2 канала
Расположение каналов : Front: L R
Частота : 48,0 КГц
Метод сжатия : С потерями
Размер потока : 605 Мбайт (3%)
Заголовок : АС garryson
Язык : English
Default : Нет
Forced : Нет
Меню
00:00:00.000 : :Chapter 01
00:02:42.629 : :Chapter 02
00:08:20.266 : :Chapter 03
00:14:47.720 : :Chapter 04
00:19:19.591 : :Chapter 05
00:25:27.292 : :Chapter 06
00:34:05.042 : :Chapter 07
00:40:43.040 : :Chapter 08
00:48:31.642 : :Chapter 09
00:54:15.218 : :Chapter 10
01:02:09.225 : :Chapter 11
01:11:41.196 : :Chapter 12
01:20:13.642 : :Chapter 13
01:28:12.520 : :Chapter 14
01:35:26.120 : :Chapter 15
01:41:21.542 : :Chapter 16
01:50:40.266 : :Chapter 17
01:53:06.713 : :Chapter 18
01:58:56.562 : :Chapter 19
02:10:40.465 : :Chapter 20
Скриншоты:
Не жилим спасибо. Не забываем голосовать за трекер!!!


Показать сообщения:    

Текущее время: 24-Май 14:16

Часовой пояс: UTC + 3


Вы не можете начинать темы
Вы не можете отвечать на сообщения
Вы не можете редактировать свои сообщения
Вы не можете удалять свои сообщения
Вы не можете голосовать в опросах
Вы не можете прикреплять файлы к сообщениям
Вы не можете скачивать файлы

!ВНИМАНИЕ!
Сайт не предоставляет электронные версии произведений, а занимается лишь коллекционированием и каталогизацией ссылок, присылаемых и публикуемых на форуме нашими читателями. Если вы являетесь правообладателем какого-либо представленного материала и не желаете, чтобы ссылка на него находилась в нашем каталоге, свяжитесь с нами, и мы незамедлительно удалим ее. Файлы для обмена на трекере предоставлены пользователями сайта, и администрация не несет ответственности за их содержание. Просьба не заливать файлы, защищенные авторскими правами, а также файлы нелегального содержания!